BitTorrentTracker PerecTracker.org
BitTorrentTracker PerecTracker.org
    
Регистрация  ·  Вход
 
 · 
Забыли пароль?

  • Романтика романса. 15 лет в эфире. Гала-концерт [2015 г., Retro, SATRip]

    Ответить на тему
     
    Автор Сообщение

    Columb

    Создавать темы 06-Янв-2015 23:53

           

    [Цитировать]

    Романтика романса. 15 лет в эфире. Гала-концерт
    Страна: Россия
    Жанр: Retro
    Продолжительность: 02:28:55
    Год выпуска: 2015
    Описание: «Романтика романса» - одна из немногих песенных программ на отечественном телевидении, где используется только «живое» исполнение. Ставшие уже традиционными, ежегодные гала-концерты «Романтики романса» проводятся на лучших площадках столицы. Cъемки юбилейной программы состоялись в стенах Крокус Сити Холла. В концерте, посвященном 15-летию программы, зрители услышали самые популярные произведения известных авторов и сочинения из репертуара легендарных исполнителей. 5 ноября 2014 года на сцену этого концертного зала вышли признанные мастера мировой оперы, а также поющие актёры театра и кино в сопровождении симфонического оркестра Крокус Сити Холла под управлением Феликса Арановского.
    Ведущие: Мария Максакова, Евгений Кунгуров, Валерия Ланская и Александр Миминошвили.
    Треклист:
    01. Леонид Серебренников − Возвращение романса
    02. Динара Алиева − Гранада
    03. Василий Ладюк − Как молоды мы были
    04. Ирина Матаева и Владимир Самсонов − Ах, эти чёрные глаза
    05. Алексей Гоман − А у нас во дворе
    06. Ангелина Сергеева − Я тебя подожду
    07. Сергей Безруков − Я Вас люблю
    08. Сергей Безруков и Валерия Ланская − Не исчезай
    09. Александр Миминошвили и артисты театра "Геликон-Опера" − Love Me Tender
    10. Полина Конкина и Роман Гайкалов − Старый рояль (из к/ф "Мы из джаза")
    11. Нина Шацкая − Снежинка
    12. Сергей Волчков − Passione
    13. Юлия Пересильд и арт-группа "САМ" − Весёлый ветер (из к/ф "Дети капитана Гранта")
    14. Евгений Дятлов − Не спеши
    15. Евгений Дятлов − Эй, друг гитара
    16. Даниил Крамер, Анна Бутурлина и Армине Саркисян − Попурри
    17. Лилия Волкова и Андрей Смирнов − Всё хорошо, прекрасная маркиза
    18. Кристина Аглинц − Besame mucho
    19. Борис Дьяков − Синяя вечность
    20. Кватро − Как много девушек хороших... (из к/ф "Весёлые ребята")
    21. Нани Брегвадзе и Александр Сариев − Романс о романсе
    22. Нани Брегвадзе и Эка Мамаладзе − Я Вас любил
    23. Глеб Матвейчук − Памяти Карузо
    24. Владислав Косарев − Потому, что ты любишь меня
    25. Юлия Гончарова и Максим Катырев − Песня о любви (из к/ф "Гардемарины, вперёд!")
    26. Николай Чиндяйкин − Дружба
    27. Дарья Зыкова − Романс из телефильма "Дни Турбиных"
    28. Владимир Самсонов − Эй, ямщик, гони-ка к Яру
    29. Валерия Ланская − Любовь настала
    30. Александр Малинин − Ночь светла
    31. Александр Малинин − Дорогой длинною
    32. Кватро − Только раз
    Качество: SATRip
    Контейнер: MKV
    Видео кодек: H.264
    Аудио кодек: MP3
    Видео: H.264, 720x576 (4:3), 1372Kbps, 25fps
    Аудио: MP3, 128Kbps, 44.1KHz, 2ch
    Разбивка по трекам: есть

    Отчет MI

    General
    Unique ID : 184673699938195636456334240179978871085 (0x8AEEDC61A8FEB2149260DCD5EFEDA12D)
    Complete name : D:\00\Романтика Романса. 15 лет в эфире. Гала-концерт.mkv
    Format : Matroska
    Format version : Version 4 / Version 2
    File size : 1.55 GiB
    Duration : 2h 28mn
    Overall bit rate : 1 491 Kbps
    Encoded date : UTC 2015-01-06 16:55:55
    Writing application : mkvmerge v7.5.0 ('Glass Culture') 64bit built on Jan 4 2015 16:48:44
    Writing library : libebml v1.3.1 + libmatroska v1.4.2
    _STATISTICS_WRITING_APP : mkvmerge v7.5.0 ('Glass Culture') 64bit built on Jan 4 2015 16:48:44
    _STATISTICS_WRITING_DATE_UTC : 2015-01-06 16:55:55
    _STATISTICS_TAGS : BPS DURATION NUMBER_OF_FRAMES NUMBER_OF_BYTES
    DURATION : 02:28:55.791000000
    NUMBER_OF_FRAMES : 223387
    NUMBER_OF_BYTES : 1520188655
    Video #2
    ID : 2
    Format : AVC
    Format/Info : Advanced Video Codec
    Format profile : High@L3.0
    Format settings, CABAC : Yes
    Format settings, ReFrames : 4 frames
    Codec ID : V_MPEG4/ISO/AVC
    Duration : 2h 28mn
    Bit rate : 1 372 Kbps
    Width : 720 pixels
    Height : 576 pixels
    Display aspect ratio : 4:3
    Frame rate : 25.000 fps
    Standard : PAL
    Color space : YUV
    Chroma subsampling : 4:2:0
    Bit depth : 8 bits
    Scan type : Progressive
    Bits/(Pixel*Frame) : 0.132
    Stream size : 1.39 GiB (89%)
    Writing library : x264 core 124
    Encoding settings : cabac=1 / ref=1 / deblock=1:-1:-1 / analyse=0x3:0x13 / me=dia / subme=1 / psy=1 / psy_rd=1.00:0.15 / mixed_ref=0 / me_range=16 / chroma_me=1 / trellis=0 / 8x8dct=1 / cqm=0 / deadzone=21,11 / fast_pskip=1 / chroma_qp_offset=0 / threads=4 / sliced_threads=0 / nr=0 / decimate=1 / interlaced=0 / bluray_compat=0 / constrained_intra=0 / bframes=3 / b_pyramid=2 / b_adapt=1 / b_bias=0 / direct=1 / weightb=1 / open_gop=0 / weightp=1 / keyint=60 / keyint_min=6 / scenecut=40 / intra_refresh=0 / rc_lookahead=0 / rc=cbr / mbtree=0 / bitrate=1372 / ratetol=1.0 / qcomp=0.60 / qpmin=10 / qpmax=51 / qpstep=4 / vbv_maxrate=1372 / vbv_bufsize=1500 / nal_hrd=none / ip_ratio=1.40 / pb_ratio=1.30 / aq=1:1.00
    Default : Yes
    Forced : No
    Audio #1
    ID : 1
    Format : MPEG Audio
    Format version : Version 1
    Format profile : Layer 3
    Mode : Joint stereo
    Mode extension : MS Stereo
    Codec ID : A_MPEG/L3
    Codec ID/Hint : MP3
    Duration : 2h 28mn
    Bit rate mode : Constant
    Bit rate : 128 Kbps
    Channel(s) : 2 channels
    Sampling rate : 44.1 KHz
    Compression mode : Lossy
    Delay relative to video : 17ms
    Stream size : 136 MiB (9%)
    Language : Russian
    Default : Yes
    Forced : No

    Скриншоты

    Скачать .torrent

    Скачать торрент-файл бесплатно и на максимальной скорости!

    Как скачивать? · Что такое торрент? · Рейтинг и ограничения

    !ВНИМАНИЕ!
    Сайт не распространяет и не хранит электронные версии произведений, а занимается лишь лишь предоставлением доступа к создаваемому пользователями каталогу ссылок на торрент-файлы, которые содержат только списки хеш-сумм, убедительная просьба с жалобами обращаться напрямую к пользователю. Файлы для обмена на трекере предоставлены пользователями сайта, и администрация не несёт ответственности за их содержание. Просьба не заливать файлы, защищенные авторскими правами, а также файлы нелегального содержания!

    [Профиль] [ЛС]
    Показать сообщения:    
    Ответить на тему

    Текущее время: Сегодня, в 12:30

    Часовой пояс: GMT + 2



    Вы не можете начинать темы
    Вы не можете отвечать на сообщения
    Вы не можете редактировать свои сообщения
    Вы не можете удалять свои сообщения
    Вы не можете голосовать в опросах
    Вы не можете прикреплять файлы к сообщениям
    Вы не можете скачивать файлы