BitTorrentTracker PerecTracker.org
BitTorrentTracker PerecTracker.org
    
Регистрация  ·  Вход
 
 · 
Забыли пароль?

  • Руки Вверх "18 нам уже" концерт / Эфир от 03.01.2015 / RuTV [03.01.2015, Документальный, Музыка, DVB]

    Ответить на тему
     
    Автор Сообщение

    Columb

    Создавать темы 06-Янв-2015 20:27

           

    [Цитировать]

    --Руки Вверх "18 нам уже" концерт / Эфир от 03.01.2015-Жанр: Документальный, Музыка
    Дата/Год выпуска: 03.01.2015
    Язык комментариев: Русский
    Перевод: Не требуется
    Дополнительная информация: За исходник спасибо kabal3000
    Телеканал: RuTV

    -Автор рипа/записи: Arsenal15-Качество: DVB
    Формат видео: ts
    Видео: 720х576@768х576 (16:9), 25,000 кадров/сек, MPEG2, ~2750 Кбит/сек
    Аудио: 48,0 КГц, MP2, 2 ch, ~192 Кбит/сек
    -

    Продолжительность

    02:07:45
    -

    MediaInfo

    E:\Мои релизы\Руки Вверх 18 нам уже концерт Эфир от 03.01.2015 RuTV.mpg General Complete name : E:\Мои релизы\Руки Вверх 18 нам уже концерт Эфир от 03.01.2015 RuTV.mpg Format : MPEG-PS File size : 2.73 GiB Duration : 2h 7mn Overall bit rate : 3 064 Kbps Writing library : (dvd5: Nov 27 2014) Video #224 ID : 224 (0xE0) Format : MPEG Video Format version : Version 2 Format profile : Main@Main Format settings, Matrix : Default Duration : 2h 7mn Bit rate mode : Variable Bit rate : 2 750 Kbps Nominal bit rate : 15.0 Mbps Width : 720 pixels Height : 576 pixels Display aspect ratio : 4:3 Frame rate : 25.000 fps Standard : PAL Colorimetry : 4:2:0 Scan type : Interlaced Scan order : Top Field First Bits/(Pixel*Frame) : 0.265 Stream size : 2.45 GiB (90%) Writing library : (dvd5: Nov 27 2014) Audio #192 ID : 192 (0xC0) Format : MPEG Audio Format version : Version 1 Format profile : Layer 2 Duration : 2h 7mn Bit rate mode : Constant Bit rate : 192 Kbps Channel(s) : 2 channels Sampling rate : 48.0 KHz Resolution : 16 bits Video delay : 56ms Stream size : 175 MiB (6%)
    - -
    Скачать .torrent

    Скачать торрент-файл бесплатно и на максимальной скорости!

    Как скачивать? · Что такое торрент? · Рейтинг и ограничения

    !ВНИМАНИЕ!
    Сайт не распространяет и не хранит электронные версии произведений, а занимается лишь лишь предоставлением доступа к создаваемому пользователями каталогу ссылок на торрент-файлы, которые содержат только списки хеш-сумм, убедительная просьба с жалобами обращаться напрямую к пользователю. Файлы для обмена на трекере предоставлены пользователями сайта, и администрация не несёт ответственности за их содержание. Просьба не заливать файлы, защищенные авторскими правами, а также файлы нелегального содержания!

    [Профиль] [ЛС]
    Показать сообщения:    
    Ответить на тему

    Текущее время: Сегодня, в 01:47

    Часовой пояс: GMT + 2



    Вы не можете начинать темы
    Вы не можете отвечать на сообщения
    Вы не можете редактировать свои сообщения
    Вы не можете удалять свои сообщения
    Вы не можете голосовать в опросах
    Вы не можете прикреплять файлы к сообщениям
    Вы не можете скачивать файлы