BitTorrentTracker PerecTracker.org
BitTorrentTracker PerecTracker.org
    
Регистрация  ·  Вход
 
 · 
Забыли пароль?

  • Heart • Band On The Run(Paul McCartney & Wings Cover) - Jimmy Kimmel Live [2015, Rock, HDTV 720p]

    Ответить на тему
     
    Автор Сообщение

    Columb

    Создавать темы 06-Янв-2015 14:23

           

    [Цитировать]

    Heart
    Band On The Run(Paul McCartney & Wings Cover)


    Жанр: Rock
    Продолжительность: 00:05:17
    Год выпуска: 2015
    Качество: HDTV 720p
    Контейнер: TS
    Видео кодек: H.264
    Аудио кодек: AC3
    Видео: MPEG2 Video 1280x720 59.94fps 10.6 Mbps
    Аудио 1: Dolby AC3 48000Hz 6ch 384kbps
    Аудио 2: Dolby AC3 48000Hz mono 192kbps

    Отчёт MediaInfo / BDInfo

    GeneralID : 1 (0x1)Complete name : L:\Heart - Band On The Run (Jimmy Kimmel Live 01-05-15) .tsFormat : MPEG-TSFile size : 445 MiBDuration : 5mn 17sOverall bit rate mode : VariableOverall bit rate : 11.7 MbpsMovie name : JIMMY KIMMEL LIVELaw rating : TV-14 (DL)
    VideoID : 1101 (0x44D)Menu ID : 1 (0x1)Format : MPEG VideoCommercial name : HDV 720pFormat version : Version 2Format profile : Main@HighFormat settings, BVOP : YesFormat settings, Matrix : CustomFormat settings, GOP : M=3, N=30Codec ID : 2Duration : 5mn 17sBit rate mode : VariableBit rate : 10.6 MbpsMaximum bit rate : 11.5 MbpsWidth : 1 280 pixelsHeight : 720 pixelsDisplay aspect ratio : 16:9Active Format Description : Letterbox 16:9 imageFrame rate : 59.940 fpsColor space : YUVChroma subsampling : 4:2:0Bit depth : 8 bitsScan type : ProgressiveCompression mode : LossyBits/(Pixel*Frame) : 0.191Time code of first frame : 00:00:00;00Time code source : Group of pictures headerStream size : 400 MiB (90%)
    Audio #1ID : 1102 (0x44E)Menu ID : 1 (0x1)Format : AC-3Format/Info : Audio Coding 3Mode extension : CM (complete main)Format settings, Endianness : BigCodec ID : 129Duration : 5mn 17sBit rate mode : ConstantBit rate : 384 KbpsChannel(s) : 6 channelsChannel positions : Front: L C R, Side: L R, LFESampling rate : 48.0 KHzBit depth : 16 bitsCompression mode : LossyStream size : 14.5 MiB (3%)Language : English
    Audio #2ID : 1103 (0x44F)Menu ID : 1 (0x1)Format : AC-3Format/Info : Audio Coding 3Mode extension : CM (complete main)Format settings, Endianness : BigCodec ID : 129Duration : 5mn 17sBit rate mode : ConstantBit rate : 192 KbpsChannel(s) : 1 channelChannel positions : Front: CSampling rate : 48.0 KHzBit depth : 16 bitsCompression mode : LossyDelay relative to video : 28msStream size : 7.26 MiB (2%)Language : Spanish

    Скриншоты

    Скачать .torrent

    Скачать торрент-файл бесплатно и на максимальной скорости!

    Как скачивать? · Что такое торрент? · Рейтинг и ограничения

    !ВНИМАНИЕ!
    Сайт не распространяет и не хранит электронные версии произведений, а занимается лишь лишь предоставлением доступа к создаваемому пользователями каталогу ссылок на торрент-файлы, которые содержат только списки хеш-сумм, убедительная просьба с жалобами обращаться напрямую к пользователю. Файлы для обмена на трекере предоставлены пользователями сайта, и администрация не несёт ответственности за их содержание. Просьба не заливать файлы, защищенные авторскими правами, а также файлы нелегального содержания!

    [Профиль] [ЛС]
    Показать сообщения:    
    Ответить на тему

    Текущее время: Сегодня, в 14:41

    Часовой пояс: GMT + 2



    Вы не можете начинать темы
    Вы не можете отвечать на сообщения
    Вы не можете редактировать свои сообщения
    Вы не можете удалять свои сообщения
    Вы не можете голосовать в опросах
    Вы не можете прикреплять файлы к сообщениям
    Вы не можете скачивать файлы