BitTorrentTracker PerecTracker.org
BitTorrentTracker PerecTracker.org
    
Регистрация  ·  Вход
 
 · 
Забыли пароль?

  • Цикл передач Радио "Радонеж". Протоиерей Димитрий (Дмитрий) Смирнов. [2013-2015, Беседы, ответы на вопросы, WEBRip] (Обновлено 06.01.2015)

    Ответить на тему
     
    Автор Сообщение

    Columb

    Создавать темы 06-Янв-2015 14:14

           

    [Цитировать]

    Цикл передач Радио "Радонеж". Протоиерей Димитрий (Дмитрий) Смирнов.
    Дата/Год выпуска: 2013-2015
    Страна: Россия
    Жанр: Беседы, ответы на вопросы
    Продолжительность: ~54 выпуска х 60 мин
    Перевод: Не требуется
    Русские субтитры: нет
    Описание: Видеозапись прямого эфира радиостанции "Радонеж", во время которого протоиерей Димитрий Смирнов отвечает на вопросы радиослушателей. Ведущий – протоиерей Александр Березовский.

    Внимание! Раздача ведётся путём добавления новых выпусков

    Внимание! Раздача ведётся путём добавления новых выпусков; при каждом добавлении создаётся новый торрент. Чтобы начать докачку нового выпуска, пользователям необходимо сделать следующее:
    (1) остановить скачивание,
    (2) удалить старый торрент у себя из клиента (старые серии удалять не надо),
    (3) скачать новый торрент и запустить его у себя в клиенте вместо старого, при этом указать клиенту путь в старую папку куда и должно происходить скачивание новых выпусков.
    Ваш клиент при этом должен произвести хеширование (проверку) старой папки (если не производит сам - помогите ему сделать это). В результате он будет докачивать только те выпуски, которых у Вас ещё нет. Старые выпуски при этом не удаляются, а продолжают раздаваться!
    Eсли Вы уже удалили старые выпуски, то предотвратить их повторную закачку можно, сняв галочки в соответствующих местах при запуске нового торрента. По возможности, желательно не удалять старые выпуски как можно дольше, чтобы релизёр не только продолжал раздавать старые выпуски, но и смог сконцентрироваться на новых.
    [
    качество: WEBRip
    формат: AVI
    Видео: 720x576 (1.25:1), 25 fps, XviD build 63 ~1397 kbps avg, 0.13 bit/pixel
    Аудио: 44.100 kHz, MPEG Layer 3, 2 ch, ~124.48 kbps avg

    MediaInfo

    Формат : AVIФормат/Информация : Audio Video InterleaveРазмер файла : 632 МбайтПродолжительность : 57 м.Режим общего битрейта : ПеременныйОбщий поток : 1535 Кбит/секПрограмма кодирования : MEncoder 1.0rc4-4.1.2Библиотека кодирования : MPlayer
    ВидеоИдентификатор : 0Формат : MPEG-4 VisualПрофиль формата : Advanced Simple@L5Параметр BVOP формата : 2Параметр QPel формата : НетПараметр GMC формата : Без точки переходаПараметр матрицы формата : Default (MPEG)Идентификатор кодека : XVIDИдентификатор кодека/Подсказка : XviDПродолжительность : 57 м.Битрейт : 1398 Кбит/секШирина : 720 пикселейВысота : 576 пикселейСоотношение сторон : 4:3Частота кадров : 25,000 кадров/секСтандарт вещания : PALЦветовое пространство : YUVСубдискретизация насыщенности : 4:2:0Битовая глубина : 8 битТип развёртки : ПрогрессивнаяМетод сжатия : С потерямиБит/(Пиксели*Кадры) : 0.135Размер потока : 575 Мбайт (91%)Библиотека кодирования : XviD 63
    АудиоИдентификатор : 1Формат : MPEG AudioВерсия формата : Version 1Профиль формата : Layer 3Идентификатор кодека : 55Идентификатор кодека/Подсказка : MP3Продолжительность : 57 м.Вид битрейта : ПеременныйБитрейт : 124 Кбит/секКаналы : 2 каналаЧастота : 44,1 КГцМетод сжатия : С потерямиРазмер потока : 51,2 Мбайт (8%)Выравнивание : Соединение по промежуткамПродолжительность промежутка : 26 мс. (0,65 видеокадр)Время предзагрузки промежутка : 133 мс.Библиотека кодирования : LAME3.98.4

    Скриншоты



    Скачать .torrent

    Скачать торрент-файл бесплатно и на максимальной скорости!

    Как скачивать? · Что такое торрент? · Рейтинг и ограничения

    !ВНИМАНИЕ!
    Сайт не распространяет и не хранит электронные версии произведений, а занимается лишь лишь предоставлением доступа к создаваемому пользователями каталогу ссылок на торрент-файлы, которые содержат только списки хеш-сумм, убедительная просьба с жалобами обращаться напрямую к пользователю. Файлы для обмена на трекере предоставлены пользователями сайта, и администрация не несёт ответственности за их содержание. Просьба не заливать файлы, защищенные авторскими правами, а также файлы нелегального содержания!

    [Профиль] [ЛС]
    Показать сообщения:    
    Ответить на тему

    Текущее время: Сегодня, в 20:30

    Часовой пояс: GMT + 2



    Вы не можете начинать темы
    Вы не можете отвечать на сообщения
    Вы не можете редактировать свои сообщения
    Вы не можете удалять свои сообщения
    Вы не можете голосовать в опросах
    Вы не можете прикреплять файлы к сообщениям
    Вы не можете скачивать файлы