Register  ·  Log in
Forgot password?

  • The Avett Brothers • Austin City Limits [2015, Folk rock, Indie rock, HDTV 1080i]

    Reply to topic
    Author Message


    Post 06-Jan-2015 11:31



    The Avett Brothers

    Жанр: Folk rock, Indie rock
    Продолжительность: 00:26:29
    Запись: October 6, 2014
    Трансляция: January 3, 2015
    Качество: HDTV 1080i
    Контейнер: TS
    Видео кодек: H.264
    Аудио кодек: AC3
    Видео: MPEG2 Video 1920x1080 29.97fps 8958Kbps
    Аудио: Dolby AC3 48000Hz 6ch 384kbps


    Scott Avett - banjo, guitar, piano, vocals
    Seth Avett - guitar, piano, vocals
    Bob Crawford - bass, fiddle, vocals
    Joe Kwon - cello
    Paul DeFiglia - Hammond B3, piano, bass
    Mike Marsh - drums
    Tania Elizabeth - fiddle
    01 Down With The Shine
    02 Head Full Of Doubt, Road Full Of Promise
    03 Kick Drum Heart
    04 In The Garden
    05 Morning Song
    06 Closing Credits - with soundcheck and backstage footage

    Отчёт MediaInfo / BDInfo

    GeneralID : 1 (0x1)Complete name : L:\The Avett Brothers on Austin City Limits.tsFormat : MPEG-TSFile size : 1.82 GiBDuration : 26mn 29sOverall bit rate mode : VariableOverall bit rate : 9 832 KbpsMaximum Overall bit rate : 35.5 MbpsLaw rating : TV-PG
    VideoID : 4113 (0x1011)Menu ID : 1 (0x1)Format : MPEG VideoFormat version : Version 2Format profile : Main@HighFormat settings, BVOP : YesFormat settings, Matrix : CustomFormat settings, GOP : VariableFormat settings, picture struc : FrameCodec ID : 2Duration : 26mn 29sBit rate mode : VariableBit rate : 8 958 KbpsMaximum bit rate : 80.0 MbpsWidth : 1 920 pixelsHeight : 1 080 pixelsDisplay aspect ratio : 16:9Active Format Description : Full frame 16:9 imageFrame rate : 29.970 fpsColor space : YUVChroma subsampling : 4:2:0Bit depth : 8 bitsScan type : InterlacedScan order : Top Field FirstCompression mode : LossyBits/(Pixel*Frame) : 0.144Time code of first frame : 00:00:00;00Time code source : Group of pictures headerStream size : 1.66 GiB (91%)Color primaries : BT.709Transfer characteristics : BT.709Matrix coefficients : BT.709
    AudioID : 4352 (0x1100)Menu ID : 1 (0x1)Format : AC-3Format/Info : Audio Coding 3Mode extension : CM (complete main)Format settings, Endianness : BigCodec ID : 129Duration : 26mn 29sBit rate mode : ConstantBit rate : 384 KbpsChannel(s) : 6 channelsChannel positions : Front: L C R, Side: L R, LFESampling rate : 48.0 KHzBit depth : 16 bitsCompression mode : LossyDelay relative to video : 25msStream size : 72.8 MiB (4%)Language : English


    Download .torrent

    Download free and at maximum speed!

    How to Download? · What is a torrent? · Ratings and Limitations

    The site does not extend and does not store electronic(digital) versions of products, and only gives access to a reference catalogue created by users on torrent-files which contain only lists of the hash-sums, the earnest entreaty, with complaints(abuse) to access directly to the user. Files for an exchange on tracker are given by users of a site, and the administration does not bear the responsibility for their maintenance. The request to not fill in the files protected by copyrights, and also files of the illegal maintenance!

    [Profile] [PM]
    Display posts from previous:    
    Reply to topic

    The time now is: Today 01:38

    All times are GMT + 3 Hours

    You cannot post new topics in this forum
    You cannot reply to topics in this forum
    You cannot edit your posts in this forum
    You cannot delete your posts in this forum
    You cannot vote in polls in this forum
    You cannot attach files in this forum
    You cannot download files in this forum