BitTorrentTracker PerecTracker.org
BitTorrentTracker PerecTracker.org
    
Регистрация  ·  Вход
 
 · 
Забыли пароль?

  • [TR24][OF] Defrag - Lost Lands EP - 2015 (IDM, Experimental, Glitch)

    Ответить на тему
     
    Автор Сообщение

    Columb

    Создавать темы 05-Янв-2015 23:19

           

    [Цитировать]

    -Defrag Lost Lands-Год издания: 2015
    Жанр: IDM, Experimental, Glitch
    Издатель(лейбл): The Irrational Media Society
    Номер по каталогу: TIMS004
    Носитель: WEB
    Страна-производитель диска: UK
    Аудиокодек: FLAC (*.flac)
    Разрядность: 24/41,1
    Тип рипа: tracks
    Битрейт аудио: lossless
    Продолжительность: 00:14:25
    Источник (релизер): What
    Наличие сканов в содержимом раздачи: Front
    Треклист:
    01. I Arrived Cold (2:37)
    02. With Insects In My Head (3:04)
    03. At A Harbor Of Dreams (2:23)
    04. And We Celebrated (1:39)
    05. While Birds Ate (1:41)
    06. The Tortoise Rotting (3:02)

    Скриншот спектра частот

    Отчет медиаинфо

    Общее
    Полное имя : H:\Music\Idm\Defrag\Defrag - Lost Lands EP - 2015 [WEB] [FLAC-24bit]\01. I Arrived Cold.flac
    Формат : FLAC
    Формат/Информация : Free Lossless Audio Codec
    Размер файла : 28,1 Мбайт
    Продолжительность : 2 м. 36 с.
    Режим общего битрейта : Переменный
    Общий поток : 1502 Кбит/сек
    Альбом : Lost Lands EP
    Часть : 1
    Часть/Всего : 1
    Трек : I Arrived Cold
    Трек/Положение : 1
    Трек/Всего : 6
    Исполнитель : Defrag
    Жанр : Electronic
    Дата записи : 2015
    Примечание : Remember to support artists.
    SOURCEMEDIA : WEB
    Аудио
    Формат : FLAC
    Формат/Информация : Free Lossless Audio Codec
    Продолжительность : 2 м. 36 с.
    Вид битрейта : Переменный
    Битрейт : 1501 Кбит/сек
    Каналы : 2 канала
    Частота : 44,1 КГц
    Битовая глубина : 24 бит
    Размер потока : 28,1 Мбайт (100%)
    Библиотека кодирования : libFLAC 1.3.0 (UTC 2013-05-26)
    Общее
    Полное имя : H:\Music\Idm\Defrag\Defrag - Lost Lands EP - 2015 [WEB] [FLAC-24bit]\02. With Insects In My Head.flac
    Формат : FLAC
    Формат/Информация : Free Lossless Audio Codec
    Размер файла : 34,5 Мбайт
    Продолжительность : 3 м. 4 с.
    Режим общего битрейта : Переменный
    Общий поток : 1573 Кбит/сек
    Альбом : Lost Lands EP
    Часть : 1
    Часть/Всего : 1
    Трек : With Insects In My Head
    Трек/Положение : 2
    Трек/Всего : 6
    Исполнитель : Defrag
    Жанр : Electronic
    Дата записи : 2015
    Примечание : Remember to support artists.
    SOURCEMEDIA : WEB
    Аудио
    Формат : FLAC
    Формат/Информация : Free Lossless Audio Codec
    Продолжительность : 3 м. 4 с.
    Вид битрейта : Переменный
    Битрейт : 1573 Кбит/сек
    Каналы : 2 канала
    Частота : 44,1 КГц
    Битовая глубина : 24 бит
    Размер потока : 34,5 Мбайт (100%)
    Библиотека кодирования : libFLAC 1.3.0 (UTC 2013-05-26)
    Общее
    Полное имя : H:\Music\Idm\Defrag\Defrag - Lost Lands EP - 2015 [WEB] [FLAC-24bit]\03. At A Harbor Of Dreams.flac
    Формат : FLAC
    Формат/Информация : Free Lossless Audio Codec
    Размер файла : 28,2 Мбайт
    Продолжительность : 2 м. 22 с.
    Режим общего битрейта : Переменный
    Общий поток : 1657 Кбит/сек
    Альбом : Lost Lands EP
    Часть : 1
    Часть/Всего : 1
    Трек : At A Harbor Of Dreams
    Трек/Положение : 3
    Трек/Всего : 6
    Исполнитель : Defrag
    Жанр : Electronic
    Дата записи : 2015
    Примечание : Remember to support artists.
    SOURCEMEDIA : WEB
    Аудио
    Формат : FLAC
    Формат/Информация : Free Lossless Audio Codec
    Продолжительность : 2 м. 22 с.
    Вид битрейта : Переменный
    Битрейт : 1657 Кбит/сек
    Каналы : 2 канала
    Частота : 44,1 КГц
    Битовая глубина : 24 бит
    Размер потока : 28,2 Мбайт (100%)
    Библиотека кодирования : libFLAC 1.3.0 (UTC 2013-05-26)
    Общее
    Полное имя : H:\Music\Idm\Defrag\Defrag - Lost Lands EP - 2015 [WEB] [FLAC-24bit]\04. And We Celebrated.flac
    Формат : FLAC
    Формат/Информация : Free Lossless Audio Codec
    Размер файла : 19,8 Мбайт
    Продолжительность : 1 м. 39 с.
    Режим общего битрейта : Переменный
    Общий поток : 1673 Кбит/сек
    Альбом : Lost Lands EP
    Часть : 1
    Часть/Всего : 1
    Трек : And We Celebrated
    Трек/Положение : 4
    Трек/Всего : 6
    Исполнитель : Defrag
    Жанр : Electronic
    Дата записи : 2015
    Примечание : Remember to support artists.
    SOURCEMEDIA : WEB
    Аудио
    Формат : FLAC
    Формат/Информация : Free Lossless Audio Codec
    Продолжительность : 1 м. 39 с.
    Вид битрейта : Переменный
    Битрейт : 1672 Кбит/сек
    Каналы : 2 канала
    Частота : 44,1 КГц
    Битовая глубина : 24 бит
    Размер потока : 19,8 Мбайт (100%)
    Библиотека кодирования : libFLAC 1.3.0 (UTC 2013-05-26)
    Общее
    Полное имя : H:\Music\Idm\Defrag\Defrag - Lost Lands EP - 2015 [WEB] [FLAC-24bit]\05. While Birds Ate.flac
    Формат : FLAC
    Формат/Информация : Free Lossless Audio Codec
    Размер файла : 18,6 Мбайт
    Продолжительность : 1 м. 41 с.
    Режим общего битрейта : Переменный
    Общий поток : 1546 Кбит/сек
    Альбом : Lost Lands EP
    Часть : 1
    Часть/Всего : 1
    Трек : While Birds Ate
    Трек/Положение : 5
    Трек/Всего : 6
    Исполнитель : Defrag
    Жанр : Electronic
    Дата записи : 2015
    Примечание : Remember to support artists.
    SOURCEMEDIA : WEB
    Аудио
    Формат : FLAC
    Формат/Информация : Free Lossless Audio Codec
    Продолжительность : 1 м. 41 с.
    Вид битрейта : Переменный
    Битрейт : 1545 Кбит/сек
    Каналы : 2 канала
    Частота : 44,1 КГц
    Битовая глубина : 24 бит
    Размер потока : 18,6 Мбайт (100%)
    Библиотека кодирования : libFLAC 1.3.0 (UTC 2013-05-26)
    Общее
    Полное имя : H:\Music\Idm\Defrag\Defrag - Lost Lands EP - 2015 [WEB] [FLAC-24bit]\06. The Tortoise Rotting.flac
    Формат : FLAC
    Формат/Информация : Free Lossless Audio Codec
    Размер файла : 33,2 Мбайт
    Продолжительность : 3 м. 2 с.
    Режим общего битрейта : Переменный
    Общий поток : 1528 Кбит/сек
    Альбом : Lost Lands EP
    Часть : 1
    Часть/Всего : 1
    Трек : The Tortoise Rotting
    Трек/Положение : 6
    Трек/Всего : 6
    Исполнитель : Defrag
    Жанр : Electronic
    Дата записи : 2015
    Примечание : Remember to support artists.
    SOURCEMEDIA : WEB
    Аудио
    Формат : FLAC
    Формат/Информация : Free Lossless Audio Codec
    Продолжительность : 3 м. 2 с.
    Вид битрейта : Переменный
    Битрейт : 1528 Кбит/сек
    Каналы : 2 канала
    Частота : 44,1 КГц
    Битовая глубина : 24 бит
    Размер потока : 33,1 Мбайт (100%)
    Библиотека кодирования : libFLAC 1.3.0 (UTC 2013-05-26)
    Скачать .torrent

    Скачать торрент-файл бесплатно и на максимальной скорости!

    Как скачивать? · Что такое торрент? · Рейтинг и ограничения

    !ВНИМАНИЕ!
    Сайт не распространяет и не хранит электронные версии произведений, а занимается лишь лишь предоставлением доступа к создаваемому пользователями каталогу ссылок на торрент-файлы, которые содержат только списки хеш-сумм, убедительная просьба с жалобами обращаться напрямую к пользователю. Файлы для обмена на трекере предоставлены пользователями сайта, и администрация не несёт ответственности за их содержание. Просьба не заливать файлы, защищенные авторскими правами, а также файлы нелегального содержания!

    [Профиль] [ЛС]
    Показать сообщения:    
    Ответить на тему

    Текущее время: Сегодня, в 14:42

    Часовой пояс: GMT + 2



    Вы не можете начинать темы
    Вы не можете отвечать на сообщения
    Вы не можете редактировать свои сообщения
    Вы не можете удалять свои сообщения
    Вы не можете голосовать в опросах
    Вы не можете прикреплять файлы к сообщениям
    Вы не можете скачивать файлы