Register  ·  Log in
Forgot password?

  • Время. Январь 2015 года / Zaman (Эльдар Куртсеитов) [2015, информационная программа, SATRip] 1 выпуск

    Reply to topic
    Author Message


    Post 05-Jan-2015 22:47



    Время. Январь 2015 года / Zaman
    Дата/Год выпуска: 2015
    Страна: Украина
    Жанр: информационная программа
    Продолжительность: ~30 мин. каждый выпуск
    Перевод: Не требуется
    Русские субтитры: нет
    Оригинальная аудиодорожка: русский
    Ведущий: Эльдар Куртсеитов
    Телеканал: ATRОписание: Важные события, происходящие в Крыму, новости Украины и мира в информационной программе "Zaman". Актуальные темы "Zaman" будут интересны как жителю полуострова, так и целевой аудитории, смотрящей канал в Интернете. "Zaman" активно использует материалы новых медиа: фотографии и видео из блогов и социальных сетей, сотрудничает как с профессиональными журналистами, так и с аматорами в области фото и видео. "Zaman" выходит 6 раз в сутки на трех языках - крымскотатарском, русском и украинском. Наиболее важные события полуострова попадают в итоговую программу "Бу афта" ("Итоговый выпуск новостей").
    Доп. информация: Программа крымскотатарского телеканала ATR, работающего из Симферополя и подробно освещающего происходящие на полуострове события. "Zaman" переводится на русский язык как "Время". Программа на русском языке, но украинская речь присутствует. Время в списке выпусков указано киевское.
    качество: SATRip
    формат: AVI
    Видео: Xvid 704x400 (16:9) 1 024 kbps 25fps
    Аудио: MP3 128 kbps 48 kHz 2 ch

    Список выпусков/серий

    1. 5 января 2015 года (18:30).


    GeneralComplete name : I:\Мои раздачи\Zaman\Zaman. Январь 2015\Zaman (2015-01-05) 18.30.aviFormat : AVIFormat/Info : Audio Video InterleaveFile size : 122 MiBDuration : 14mn 45sOverall bit rate : 1 159 Kbps
    VideoID : 0Format : MPEG-4 VisualFormat profile : Advanced Simple@L5Format settings, BVOP : 2Format settings, QPel : NoFormat settings, GMC : No warppointsFormat settings, Matrix : Default (H.263)Codec ID : XVIDCodec ID/Hint : XviDDuration : 14mn 45sBit rate : 1 021 KbpsWidth : 704 pixelsHeight : 400 pixelsDisplay aspect ratio : 16:9Frame rate : 25.000 fpsColor space : YUVChroma subsampling : 4:2:0Bit depth : 8 bitsScan type : ProgressiveCompression mode : LossyBits/(Pixel*Frame) : 0.145Stream size : 108 MiB (88%)Writing library : XviD 64
    AudioID : 1Format : MPEG AudioFormat version : Version 1Format profile : Layer 3Mode : Joint stereoMode extension : MS StereoCodec ID : 55Codec ID/Hint : MP3Duration : 14mn 45sBit rate mode : ConstantBit rate : 128 KbpsChannel(s) : 2 channelsSampling rate : 48.0 KHzCompression mode : LossyStream size : 13.5 MiB (11%)Alignment : Split accross interleavesInterleave, duration : 40 ms (1.00 video frame)Interleave, preload duration : 500 ms


    Download .torrent

    Download free and at maximum speed!

    How to Download? · What is a torrent? · Ratings and Limitations

    The site does not extend and does not store electronic(digital) versions of products, and only gives access to a reference catalogue created by users on torrent-files which contain only lists of the hash-sums, the earnest entreaty, with complaints(abuse) to access directly to the user. Files for an exchange on tracker are given by users of a site, and the administration does not bear the responsibility for their maintenance. The request to not fill in the files protected by copyrights, and also files of the illegal maintenance!

    [Profile] [PM]
    Display posts from previous:    
    Reply to topic

    The time now is: Today 23:35

    All times are GMT + 3 Hours

    You cannot post new topics in this forum
    You cannot reply to topics in this forum
    You cannot edit your posts in this forum
    You cannot delete your posts in this forum
    You cannot vote in polls in this forum
    You cannot attach files in this forum
    You cannot download files in this forum