BitTorrentTracker PerecTracker.org
BitTorrentTracker PerecTracker.org
    
Регистрация  ·  Вход
 
 · 
Забыли пароль?

  • Время. Январь 2015 года / Zaman (Эльдар Куртсеитов) [2015, информационная программа, SATRip] 1 выпуск

    Ответить на тему
     
    Автор Сообщение

    Columb

    Создавать темы 05-Янв-2015 21:47

           

    [Цитировать]

    Время. Январь 2015 года / Zaman
    Дата/Год выпуска: 2015
    Страна: Украина
    Жанр: информационная программа
    Продолжительность: ~30 мин. каждый выпуск
    Перевод: Не требуется
    Русские субтитры: нет
    Оригинальная аудиодорожка: русский
    Ведущий: Эльдар Куртсеитов
    Телеканал: ATRОписание: Важные события, происходящие в Крыму, новости Украины и мира в информационной программе "Zaman". Актуальные темы "Zaman" будут интересны как жителю полуострова, так и целевой аудитории, смотрящей канал в Интернете. "Zaman" активно использует материалы новых медиа: фотографии и видео из блогов и социальных сетей, сотрудничает как с профессиональными журналистами, так и с аматорами в области фото и видео. "Zaman" выходит 6 раз в сутки на трех языках - крымскотатарском, русском и украинском. Наиболее важные события полуострова попадают в итоговую программу "Бу афта" ("Итоговый выпуск новостей").
    Доп. информация: Программа крымскотатарского телеканала ATR, работающего из Симферополя и подробно освещающего происходящие на полуострове события. "Zaman" переводится на русский язык как "Время". Программа на русском языке, но украинская речь присутствует. Время в списке выпусков указано киевское.
    Сэмпл: https://www.sendspace.com/file/klv0v9
    качество: SATRip
    формат: AVI
    Видео: Xvid 704x400 (16:9) 1 024 kbps 25fps
    Аудио: MP3 128 kbps 48 kHz 2 ch

    Список выпусков/серий

    1. 5 января 2015 года (18:30).

    MediaInfo

    GeneralComplete name : I:\Мои раздачи\Zaman\Zaman. Январь 2015\Zaman (2015-01-05) 18.30.aviFormat : AVIFormat/Info : Audio Video InterleaveFile size : 122 MiBDuration : 14mn 45sOverall bit rate : 1 159 Kbps
    VideoID : 0Format : MPEG-4 VisualFormat profile : Advanced Simple@L5Format settings, BVOP : 2Format settings, QPel : NoFormat settings, GMC : No warppointsFormat settings, Matrix : Default (H.263)Codec ID : XVIDCodec ID/Hint : XviDDuration : 14mn 45sBit rate : 1 021 KbpsWidth : 704 pixelsHeight : 400 pixelsDisplay aspect ratio : 16:9Frame rate : 25.000 fpsColor space : YUVChroma subsampling : 4:2:0Bit depth : 8 bitsScan type : ProgressiveCompression mode : LossyBits/(Pixel*Frame) : 0.145Stream size : 108 MiB (88%)Writing library : XviD 64
    AudioID : 1Format : MPEG AudioFormat version : Version 1Format profile : Layer 3Mode : Joint stereoMode extension : MS StereoCodec ID : 55Codec ID/Hint : MP3Duration : 14mn 45sBit rate mode : ConstantBit rate : 128 KbpsChannel(s) : 2 channelsSampling rate : 48.0 KHzCompression mode : LossyStream size : 13.5 MiB (11%)Alignment : Split accross interleavesInterleave, duration : 40 ms (1.00 video frame)Interleave, preload duration : 500 ms

    Скриншоты

    Скачать .torrent

    Скачать торрент-файл бесплатно и на максимальной скорости!

    Как скачивать? · Что такое торрент? · Рейтинг и ограничения

    !ВНИМАНИЕ!
    Сайт не распространяет и не хранит электронные версии произведений, а занимается лишь лишь предоставлением доступа к создаваемому пользователями каталогу ссылок на торрент-файлы, которые содержат только списки хеш-сумм, убедительная просьба с жалобами обращаться напрямую к пользователю. Файлы для обмена на трекере предоставлены пользователями сайта, и администрация не несёт ответственности за их содержание. Просьба не заливать файлы, защищенные авторскими правами, а также файлы нелегального содержания!

    [Профиль] [ЛС]
    Показать сообщения:    
    Ответить на тему

    Текущее время: Сегодня, в 06:02

    Часовой пояс: GMT + 2



    Вы не можете начинать темы
    Вы не можете отвечать на сообщения
    Вы не можете редактировать свои сообщения
    Вы не можете удалять свои сообщения
    Вы не можете голосовать в опросах
    Вы не можете прикреплять файлы к сообщениям
    Вы не можете скачивать файлы