BitTorrentTracker PerecTracker.org
BitTorrentTracker PerecTracker.org
    
Регистрация  ·  Вход
 
 · 
Забыли пароль?

  • Arctic Monkeys. Hurricane 2013 [2015, Indie rock/Psychedelic rock, HDTV 720p]

    Ответить на тему
     
    Автор Сообщение

    Columb

    Создавать темы 05-Янв-2015 19:02

           

    [Цитировать]

    Arctic Monkeys. Hurricane 2013
    Жанр: Indie rock/Psychedelic rock
    Продолжительность: 00:57:41
    Год выпуска: 2015
    Описание: Выступление британского indie rock бэнда Arctic Monkeys на рок фестивале Hurricane в Шесселе, рядом с Бременом 2013 jun22
    Доп. информация: Собственная запись со спутникового канала ZDF Kultur 2015 jan04
    Треклист: Intro
    Do I Wanna Know?
    Brainstorm
    Dancing Shoes
    Teddy Picker
    Crying Lightning
    Brick By Brick
    Old Yellow Bricks
    I Bet You Look Good On The Dancefloor
    Do Me A Favour
    R U Mine?
    Fluorescent Adolescent
    Cornerstone
    505
    Качество: HDTV 720p
    Контейнер: TS
    Видео кодек: H.264
    Аудио кодек: AC3
    Видео: Mpeg4 AVC, 1280x720, 12800 kbps, 50 fps Progressive
    Аудио: AC3, 448 kbps, 48 kHz, stereo
    Аудио 2: MP2, 256 kbps, 48 kHz, stereo
    Аудио 3: MP2, 192 kbps, 48 kHz, stereo

    Отчёт MediaInfo / BDInfo

    GeneralID : 1 (0x1)Complete name : D:\Downloads\Arctic Monkeys. Hurricane 2013.tsFormat : MPEG-TSFile size : 5.90 GiBDuration : 57mn 41sOverall bit rate mode : VariableOverall bit rate : 14.6 Mbps
    VideoID : 6410 (0x190A)Menu ID : 1 (0x1)Format : AVCFormat/Info : Advanced Video CodecFormat profile : High@L4.0Format settings, CABAC : YesFormat settings, ReFrames : 6 framesCodec ID : 27Duration : 57mn 40sBit rate : 12.8 MbpsWidth : 1 280 pixelsHeight : 720 pixelsDisplay aspect ratio : 16:9Frame rate : 50.000 fpsColor space : YUVChroma subsampling : 4:2:0Bit depth : 8 bitsScan type : ProgressiveBits/(Pixel*Frame) : 0.278Stream size : 5.17 GiB (88%)Color primaries : BT.709Transfer characteristics : BT.709Matrix coefficients : BT.709Color range : Limited
    Audio #1ID : 6420 (0x1914)Menu ID : 1 (0x1)Format : MPEG AudioFormat version : Version 1Format profile : Layer 2Codec ID : 3Duration : 57mn 40sBit rate mode : ConstantBit rate : 256 KbpsChannel(s) : 2 channelsSampling rate : 48.0 KHzCompression mode : LossyStream size : 106 MiB (2%)Language : German
    Audio #2ID : 6421 (0x1915)Menu ID : 1 (0x1)Format : MPEG AudioFormat version : Version 1Format profile : Layer 2Codec ID : 3Duration : 57mn 40sBit rate mode : ConstantBit rate : 192 KbpsChannel(s) : 2 channelsSampling rate : 48.0 KHzCompression mode : LossyStream size : 79.2 MiB (1%)
    Audio #3ID : 6422 (0x1916)Menu ID : 1 (0x1)Format : AC-3Format/Info : Audio Coding 3Mode extension : CM (complete main)Format settings, Endianness : BigCodec ID : 6Duration : 57mn 40sBit rate mode : ConstantBit rate : 448 KbpsChannel(s) : 2 channelsChannel positions : Front: L RSampling rate : 48.0 KHzBit depth : 16 bitsCompression mode : LossyStream size : 185 MiB (3%)Language : German
    Audio #4ID : 6423 (0x1917)Menu ID : 1 (0x1)Format : MPEG AudioFormat version : Version 1Format profile : Layer 2Codec ID : 3Duration : 57mn 40sBit rate mode : ConstantBit rate : 192 KbpsChannel(s) : 2 channelsSampling rate : 48.0 KHzCompression mode : LossyStream size : 79.2 MiB (1%)Language : Multiple languages
    TextID : 6430 (0x191E)-100Menu ID : 1 (0x1)Format : TeletextLanguage : German
    MenuID : 6400 (0x1900)Menu ID : 1 (0x1)Duration : 57mn 41sList : 6410 (0x190A) (AVC) / 6420 (0x1914) (MPEG Audio, German) / 6421 (0x1915) (MPEG Audio) / 6422 (0x1916) (AC-3, German) / 6423 (0x1917) (MPEG Audio, Multiple languages) / 6430 (0x191E) ()Language : / German / / German / Multiple languages

    Скриншоты

    Скачать .torrent

    Скачать торрент-файл бесплатно и на максимальной скорости!

    Как скачивать? · Что такое торрент? · Рейтинг и ограничения

    !ВНИМАНИЕ!
    Сайт не распространяет и не хранит электронные версии произведений, а занимается лишь лишь предоставлением доступа к создаваемому пользователями каталогу ссылок на торрент-файлы, которые содержат только списки хеш-сумм, убедительная просьба с жалобами обращаться напрямую к пользователю. Файлы для обмена на трекере предоставлены пользователями сайта, и администрация не несёт ответственности за их содержание. Просьба не заливать файлы, защищенные авторскими правами, а также файлы нелегального содержания!

    [Профиль] [ЛС]
    Показать сообщения:    
    Ответить на тему

    Текущее время: Сегодня, в 07:12

    Часовой пояс: GMT + 2



    Вы не можете начинать темы
    Вы не можете отвечать на сообщения
    Вы не можете редактировать свои сообщения
    Вы не можете удалять свои сообщения
    Вы не можете голосовать в опросах
    Вы не можете прикреплять файлы к сообщениям
    Вы не можете скачивать файлы