BitTorrentTracker PerecTracker.org
BitTorrentTracker PerecTracker.org
    
Регистрация  ·  Вход
 
 · 
Забыли пароль?

  • Santana. Rock'n'Roll Hall of Fame 1998 [2015, Latin rock/Blues rock/Hard rock/Pop rock, HDTV 720p]

    Ответить на тему
     
    Автор Сообщение

    Columb

    Создавать темы 05-Янв-2015 15:39

           

    [Цитировать]

    Santana. Rock'n'Roll Hall of Fame 1998
    Жанр: Latin rock/Blues rock/Hard rock/Pop rock
    Продолжительность: 01:54:12
    Год выпуска: 2015
    Описание: Выступления американского Latin rock бэнда Santana на сцене открытого театра Freilichtbühne Loreley в немецком Санкт-Гоарсхаузене 1998 jun21
    Доп. информация: Собственная запись со спутникового канала WDR 2015 jan04
    Треклист: Bacalao con pan
    Day of Celebration
    Exodus (with Dave Matthews Band)
    Spiritual / (Da Le) Yaleo / Hannibal (with Dave Matthews Band)
    Right On / Get On
    Savor
    Get It in Your Soul
    Mumbo Jumbo
    Jin-go-lo-ba (Jingo)
    One Fine Morning
    Качество: HDTV 720p
    Контейнер: TS
    Видео кодек: H.264
    Аудио кодек: AC3
    Видео: Mpeg4 AVC, 1280x720, 8850 kbps, 50 fps Progressive
    Аудио: AC3, 448 kbps, 48 kHz, stereo
    Аудио 2: MP2 , 192 kbps, 48 Khz, stereo
    Аудио 3: MP2 , 192 kbps, 48 Khz, stereo

    Отчёт MediaInfo / BDInfo

    GeneralID : 1 (0x1)Complete name : D:\Downloads\Santana. Rock'n'Roll Hall of Fame 1998.tsFormat : MPEG-TSFile size : 8.13 GiBDuration : 1h 54mnOverall bit rate mode : VariableOverall bit rate : 10.2 Mbps
    VideoID : 5501 (0x157D)Menu ID : 1 (0x1)Format : AVCFormat/Info : Advanced Video CodecFormat profile : High@L4.0Format settings, CABAC : YesFormat settings, ReFrames : 4 framesCodec ID : 27Duration : 1h 54mnBit rate : 8 852 KbpsWidth : 1 280 pixelsHeight : 720 pixelsDisplay aspect ratio : 16:9Frame rate : 50.000 fpsColor space : YUVChroma subsampling : 4:2:0Bit depth : 8 bitsScan type : ProgressiveBits/(Pixel*Frame) : 0.192Stream size : 7.06 GiB (87%)
    Audio #1ID : 5502 (0x157E)Menu ID : 1 (0x1)Format : MPEG AudioFormat version : Version 1Format profile : Layer 2Codec ID : 3Duration : 1h 54mnBit rate mode : ConstantBit rate : 192 KbpsChannel(s) : 2 channelsSampling rate : 48.0 KHzCompression mode : LossyStream size : 157 MiB (2%)Language : German
    Audio #2ID : 5503 (0x157F)Menu ID : 1 (0x1)Format : MPEG AudioFormat version : Version 1Format profile : Layer 2Codec ID : 3Duration : 1h 54mnBit rate mode : ConstantBit rate : 192 KbpsChannel(s) : 2 channelsSampling rate : 48.0 KHzCompression mode : LossyStream size : 157 MiB (2%)
    Audio #3ID : 5506 (0x1582)Menu ID : 1 (0x1)Format : AC-3Format/Info : Audio Coding 3Mode extension : CM (complete main)Format settings, Endianness : BigCodec ID : 6Duration : 1h 54mnBit rate mode : ConstantBit rate : 448 KbpsChannel(s) : 2 channelsChannel positions : Front: L RSampling rate : 48.0 KHzBit depth : 16 bitsCompression mode : LossyStream size : 366 MiB (4%)Language : German
    TextID : 5504 (0x1580)-100Menu ID : 1 (0x1)Format : TeletextLanguage : German
    MenuID : 5520 (0x1590)Menu ID : 1 (0x1)Duration : 1h 54mnList : 5501 (0x157D) (AVC) / 5502 (0x157E) (MPEG Audio, German) / 5503 (0x157F) (MPEG Audio) / 5506 (0x1582) (AC-3, German) / 5504 (0x1580) ()Language : / German / / German

    Скриншоты

    Скачать .torrent

    Скачать торрент-файл бесплатно и на максимальной скорости!

    Как скачивать? · Что такое торрент? · Рейтинг и ограничения

    !ВНИМАНИЕ!
    Сайт не распространяет и не хранит электронные версии произведений, а занимается лишь лишь предоставлением доступа к создаваемому пользователями каталогу ссылок на торрент-файлы, которые содержат только списки хеш-сумм, убедительная просьба с жалобами обращаться напрямую к пользователю. Файлы для обмена на трекере предоставлены пользователями сайта, и администрация не несёт ответственности за их содержание. Просьба не заливать файлы, защищенные авторскими правами, а также файлы нелегального содержания!

    [Профиль] [ЛС]
    Показать сообщения:    
    Ответить на тему

    Текущее время: Сегодня, в 02:07

    Часовой пояс: GMT + 2



    Вы не можете начинать темы
    Вы не можете отвечать на сообщения
    Вы не можете редактировать свои сообщения
    Вы не можете удалять свои сообщения
    Вы не можете голосовать в опросах
    Вы не можете прикреплять файлы к сообщениям
    Вы не можете скачивать файлы