BitTorrentTracker PerecTracker.org
BitTorrentTracker PerecTracker.org
    
Регистрация  ·  Вход
 
 · 
Забыли пароль?

  • Непорочная Мария / Junketsu no Maria [TV] [1 из >12] [без хардсаба] [JAP+SUB] [2015 г., комедия, фэнтези, WEBRip] [720p]

    Ответить на тему
     
    Автор Сообщение

    Columb

    Создавать темы 05-Янв-2015 15:36

           

    [Цитировать]

    Непорочная Мария / Junketsu no Maria-Страна: Япония
    Год выпуска: 2015 г.
    Жанр: комедия, фэнтези
    Тип: TV
    Продолжительность: >12 эп. по 25 мин
    Режиссер: Танигути Горо
    Студия: Production I.G-Описание: История следует за Марией, очень мощной ведьмой которая жила во Франции в период "Столетней Войны". Она ненавидит войну, поэтому она всячески препятствует ей используя свои мощные магические способности. Её вмешательство со своими суккубом Артемис и демоном Приапосом привлекают внимание небес, и Архангел Михаил издает указ. Когда Мария потеряет свою девственность, она лишится своей магической силы. Красивый ангел по имени Езекиль предположительно должен следить за тем что бы Мария не использовала магию на людях, но она продолжает ее использовать не смотря ни на что.-Качество: WEBRip
    Тип релиза: Без хардсаба
    Формат видео: mp4
    Релиз/Автор рипа: Woun-Видео: H264, 3 624 Kbps, 1280x720, 23.976 fps, 8 bit
    Аудио: JAP, AAC, 128 kbps, 44 100 Hz, 2ch
    Субтитры: ASS, внешние; Язык субтитров русский;
    Набор текста и тайминг: Bananasichik Перевод c японского: Animevost

    Подробные тех. данные

    GeneralComplete name : D:\Torrent\[Woun] Junketsu no Maria 01 Pre-Air (Bandai Channel, H.264 1280x720).mp4Format : MPEG-4Format profile : Base MediaCodec ID : isomFile size : 641 MiBDuration : 23mn 51sOverall bit rate mode : VariableOverall bit rate : 3 756 KbpsEncoded date : UTC 2015-01-04 13:27:49Tagged date : UTC 2015-01-04 13:27:49Writing application : Lavf51.12.1
    VideoID : 1Format : AVCFormat/Info : Advanced Video CodecFormat profile : Baseline@L1.3Format settings, CABAC : NoFormat settings, ReFrames : 1 frameFormat settings, GOP : M=1, N=12Codec ID : avc1Codec ID/Info : Advanced Video CodingDuration : 23mn 51sBit rate : 3 624 KbpsWidth : 1 280 pixelsHeight : 720 pixelsDisplay aspect ratio : 16:9Frame rate mode : ConstantFrame rate : 23.976 fpsColor space : YUVChroma subsampling : 4:2:0Bit depth : 8 bitsScan type : ProgressiveBits/(Pixel*Frame) : 0.164Stream size : 619 MiB (96%)Encoded date : UTC 2015-01-04 13:27:49Tagged date : UTC 2015-01-04 13:27:49
    AudioID : 2Format : AACFormat/Info : Advanced Audio CodecFormat profile : LCCodec ID : 40Duration : 23mn 51sBit rate mode : VariableBit rate : 128 KbpsChannel(s) : 2 channelsChannel positions : Front: L RSampling rate : 44.1 KHzCompression mode : LossyStream size : 21.8 MiB (3%)Encoded date : UTC 2015-01-04 13:27:49Tagged date : UTC 2015-01-04 13:27:49

    Список эпизодов

    01 - Virgo Intacta

    Скриншоты

    Скачать .torrent

    Скачать торрент-файл бесплатно и на максимальной скорости!

    Как скачивать? · Что такое торрент? · Рейтинг и ограничения

    !ВНИМАНИЕ!
    Сайт не распространяет и не хранит электронные версии произведений, а занимается лишь лишь предоставлением доступа к создаваемому пользователями каталогу ссылок на торрент-файлы, которые содержат только списки хеш-сумм, убедительная просьба с жалобами обращаться напрямую к пользователю. Файлы для обмена на трекере предоставлены пользователями сайта, и администрация не несёт ответственности за их содержание. Просьба не заливать файлы, защищенные авторскими правами, а также файлы нелегального содержания!

    [Профиль] [ЛС]
    Показать сообщения:    
    Ответить на тему

    Текущее время: Сегодня, в 15:38

    Часовой пояс: GMT + 2



    Вы не можете начинать темы
    Вы не можете отвечать на сообщения
    Вы не можете редактировать свои сообщения
    Вы не можете удалять свои сообщения
    Вы не можете голосовать в опросах
    Вы не можете прикреплять файлы к сообщениям
    Вы не можете скачивать файлы