BitTorrentTracker PerecTracker.org
BitTorrentTracker PerecTracker.org
    
Регистрация  ·  Вход
 
 · 
Забыли пароль?

  • Англия в общем и в частности. Проект Владимира Познера и Ивана Урганта. Серия 01-03 (Из 10) [2014, Документальный, HDTV 1080i]

    Ответить на тему
     
    Автор Сообщение

    Columb

    Создавать темы 05-Янв-2015 09:18

           

    [Цитировать]

    Англия в общем и в частности. Проект Владимира Познера и Ивана Урганта. Серия 02 (Из ??)
    Год выпуска: 2014
    Страна: Россия
    Студия: Первый канал
    Жанр: Документальный
    Продолжительность: 00:48:00 / серия
    Перевод: Не требуется
    Русские субтитры: нет
    Режиссер: Валерий Спирин
    Описание: Документальный цикл о путешествии популярных телеведущих Владимира Познера и Ивана Урганта и по городам Англии. Англия – страна туманная и таинственная, недаром ее называли "коварным Альбионом". Владимир Познер и Иван Ургант решили разобраться в том, что есть Англия на самом деле, и кто такие англичане. Для начала они отправятся в Лондон - город, который по праву считается сосредоточием всего английского. Знающие люди подсказали путешественникам, что нет лучшего способа по-настоящему узнать город, понять его характер, чем взять кэб. Лондонский кэб - вещь легендарная и знаковая. Как и сами кэбмены. Главное их достоинство - идеальное знание города. Коренной лондонец кэбмэн Тони Хайзер, с которым Владимир Владимирович и Иван проведут целый день, познакомит их со своим Лондоном. Кроме того, зрители узнают о том, как долго надо учиться, чтобы получить лицензию кэбмена, с чем связано исчезновение знаменитого лондонского смога, на чем ездит на работу мэр Лондона Борис Джонсон, почему лондонское метро называют тьюб, что Биг Бен - это вовсе не знаменитая башня с часами, откуда в Англию пришла традиция пикников, что такое паб-кролл, кто был прообразом Шерлока Хомса и многое другое.
    Доп. информация: Релиз -

    Рип чистый. Без посторонних надписей. Выкладывается как есть.
    Качество: HDTV 1080i
    Контейнер: TS
    Видео кодек: AVC
    Аудио кодек: MP2, AC3
    Видео: 1920x1080 (16:9) 25.000 fps ~ 8 674 Kbps, 0.167 bit/pixel
    Аудио 1: MPEG Audio 48000Hz stereo 192 Кбит/сек
    Аудио 2: AC3, 6 channels, 48000Hz, 384 Кбит/сек

    Скриншоты


    Скринлист

    MI

    GeneralID : 1 (0x1)Complete name : H:\ВЫКЛАДКА\Англия в общем и в частности. Проект Владимира Познера и Ивана Урганта (2014, Документальный, HDTV 1080i) (MYDIMKA)\01 серия.tsFormat : MPEG-TSFile size : 3.32 GiBDuration : 48mn 37sOverall bit rate mode : VariableOverall bit rate : 9 771 Kbps
    VideoID : 1902 (0x76E)Menu ID : 92 (0x5C)Format : AVCFormat/Info : Advanced Video CodecFormat profile : High@L4.0Format settings, CABAC : YesFormat settings, ReFrames : 3 framesCodec ID : 27Duration : 48mn 37sBit rate : 8 674 KbpsWidth : 1 920 pixelsHeight : 1 080 pixelsDisplay aspect ratio : 16:9Frame rate : 25.000 fpsStandard : ComponentColor space : YUVChroma subsampling : 4:2:0Bit depth : 8 bitsScan type : InterlacedScan order : Top Field FirstBits/(Pixel*Frame) : 0.167Stream size : 2.95 GiB (89%)Color primaries : BT.709Transfer characteristics : BT.709Matrix coefficients : BT.709
    Audio #1ID : 2902 (0xB56)Menu ID : 92 (0x5C)Format : AC-3Format/Info : Audio Coding 3Mode extension : CM (complete main)Format settings, Endianness : BigCodec ID : 6Duration : 48mn 37sBit rate mode : ConstantBit rate : 384 KbpsChannel(s) : 6 channelsChannel positions : Front: L C R, Side: L R, LFESampling rate : 48.0 KHzBit depth : 16 bitsCompression mode : LossyStream size : 134 MiB (4%)Language : Russian
    Audio #2ID : 2903 (0xB57)Menu ID : 92 (0x5C)Format : MPEG AudioFormat version : Version 1Format profile : Layer 2Codec ID : 3Duration : 48mn 37sBit rate mode : ConstantBit rate : 224 KbpsChannel(s) : 2 channelsSampling rate : 48.0 KHzCompression mode : LossyStream size : 77.9 MiB (2%)Language : Russian
    TextID : 2904 (0xB58)-888Menu ID : 92 (0x5C)Format : Teletext SubtitleLanguage : Russian
    MenuID : 902 (0x386)Menu ID : 92 (0x5C)Duration : 48mn 37sList : 1902 (0x76E) (AVC) / 2902 (0xB56) (AC-3, Russian) / 2903 (0xB57) (MPEG Audio, Russian) / 2904 (0xB58) ()Language : / Russian / Russian
    Скачать .torrent

    Скачать торрент-файл бесплатно и на максимальной скорости!

    Как скачивать? · Что такое торрент? · Рейтинг и ограничения

    !ВНИМАНИЕ!
    Сайт не распространяет и не хранит электронные версии произведений, а занимается лишь лишь предоставлением доступа к создаваемому пользователями каталогу ссылок на торрент-файлы, которые содержат только списки хеш-сумм, убедительная просьба с жалобами обращаться напрямую к пользователю. Файлы для обмена на трекере предоставлены пользователями сайта, и администрация не несёт ответственности за их содержание. Просьба не заливать файлы, защищенные авторскими правами, а также файлы нелегального содержания!

    [Профиль] [ЛС]
    Показать сообщения:    
    Ответить на тему

    Текущее время: Сегодня, в 10:38

    Часовой пояс: GMT + 2



    Вы не можете начинать темы
    Вы не можете отвечать на сообщения
    Вы не можете редактировать свои сообщения
    Вы не можете удалять свои сообщения
    Вы не можете голосовать в опросах
    Вы не можете прикреплять файлы к сообщениям
    Вы не можете скачивать файлы