BitTorrentTracker PerecTracker.org
BitTorrentTracker PerecTracker.org
    
Регистрация  ·  Вход
 
 · 
Забыли пароль?

  • Извозчику - 30 лет. Юбилейный концерт Александра Новикова (эфир 2015.01.02) [2015, Pop, DVB]

    Ответить на тему
     
    Автор Сообщение

    Columb

    Создавать темы 04-Янв-2015 23:59

           

    [Цитировать]

    Извозчику - 30 лет. Юбилейный концерт Александра Новикова (эфир 2015.01.02)
    Жанр: Pop
    Продолжительность: 01:27:47
    Год выпуска: 2015
    Описание: Телевизионная версия концерта Александра Новикова, который состоялся 30 октября в Государственном Кремлёвском Дворце. Популярный автор и исполнитель современных городских романсов, лауреат общенациональной премии "Овация" и неоднократный лауреат премии "Шансон года" приготовил много сюрпризов и незабываемых подарков для всех поклонникам своего творчества. Вас ждут старые хиты и новые песни.
    Качество: DVB
    Контейнер: MPG
    Видео кодек: MPEG2
    Аудио кодек: MP2
    Видео: MPEG 2, 720x576@1024x576 (16:9), анаморф, 25 fps, 5 343 Kbps
    Аудио: MPEG Audiо, 2 сh, 48 kHz, 192 kbps

    Отчёт MediaInfo / BDInfo

    GeneralComplete name : Q:\2014-2015 НОВОГОДНИЕ\Извозчику - 30 лет. Юбилейный концерт Александра Новикова 2015.01.02.mpgFormat : MPEG-PSFile size : 3.46 GiBDuration : 1h 27mnOverall bit rate mode : VariableOverall bit rate : 5 648 KbpsWriting library : (c) 1998-2012 Womble Multimedia, Inc. / MPEG Video Wizard DVD 5.0.1.100 (03/2011) / Sep 22 2012
    VideoID : 224 (0xE0)Format : MPEG VideoFormat version : Version 2Format profile : Main@MainFormat settings, BVOP : YesFormat settings, Matrix : CustomFormat settings, GOP : M=3, N=36Format settings, picture struc : FrameDuration : 1h 27mnBit rate mode : VariableBit rate : 5 343 KbpsMaximum bit rate : 15.0 MbpsWidth : 720 pixelsHeight : 576 pixelsDisplay aspect ratio : 16:9Frame rate : 25.000 fpsStandard : PALColor space : YUVChroma subsampling : 4:2:0Bit depth : 8 bitsScan type : InterlacedScan order : Top Field FirstCompression mode : LossyBits/(Pixel*Frame) : 0.515Time code of first frame : 00:00:00:00Time code source : Group of pictures headerGOP, Open/Closed : OpenStream size : 3.28 GiB (95%)Writing library : (c) 1998-2012 Womble Multimedia, Inc. / MPEG Video Wizard DVD 5.0.1.100 (03/2011) / Sep 22 2012
    AudioID : 192 (0xC0)Format : MPEG AudioFormat version : Version 1Format profile : Layer 2Duration : 1h 27mnBit rate mode : ConstantBit rate : 192 KbpsChannel(s) : 2 channelsSampling rate : 48.0 KHzCompression mode : LossyDelay relative to video : -40msStream size : 121 MiB (3%)
    Menu

    Скриншоты


    Скачать .torrent

    Скачать торрент-файл бесплатно и на максимальной скорости!

    Как скачивать? · Что такое торрент? · Рейтинг и ограничения

    !ВНИМАНИЕ!
    Сайт не распространяет и не хранит электронные версии произведений, а занимается лишь лишь предоставлением доступа к создаваемому пользователями каталогу ссылок на торрент-файлы, которые содержат только списки хеш-сумм, убедительная просьба с жалобами обращаться напрямую к пользователю. Файлы для обмена на трекере предоставлены пользователями сайта, и администрация не несёт ответственности за их содержание. Просьба не заливать файлы, защищенные авторскими правами, а также файлы нелегального содержания!

    [Профиль] [ЛС]
    Показать сообщения:    
    Ответить на тему

    Текущее время: Сегодня, в 00:29

    Часовой пояс: GMT + 2



    Вы не можете начинать темы
    Вы не можете отвечать на сообщения
    Вы не можете редактировать свои сообщения
    Вы не можете удалять свои сообщения
    Вы не можете голосовать в опросах
    Вы не можете прикреплять файлы к сообщениям
    Вы не можете скачивать файлы