BitTorrentTracker PerecTracker.org
BitTorrentTracker PerecTracker.org
    
Регистрация  ·  Вход
 
 · 
Забыли пароль?

  • Большой Новогодний концерт / Великий Новорiчний концерт (Новогодний огонек, эфир от 01.01.2015) [2015 г., Pop, DVB]

    Ответить на тему
     
    Автор Сообщение

    Columb

    Создавать темы 04-Янв-2015 20:15

           

    [Цитировать]

    Жди меня в Новый год / Жди меня у Новий рік (Новогодний огонек, эфир от 01.01.2015)
    Страна: Украина
    Жанр: Pop
    Продолжительность: 02:39:13
    Год выпуска: 2015 г.
    Выпущено: Украина, Интер
    Режиссер: Максим Паперник
    Описание: В новогоднюю ночь для зрителей канала "Украина" споют София Ротару, Потап и Настя, Оля Полякова, Джамала, Александр Пономарев, Злата Огневич, Ирина Билык и Дима Коляденко, Анна Седокова, Маричка Яремчук, сестры Петрик, Макс Барских, Светлана Лобода, Алеша, Александр Кривошапко, Светлана Тарабарова, группы "Время и Стекло", "СКАЙ", "ТНМК", Виталий Козловский и многие другие. Звезды шоу-бизнеса исполнят всем знакомые и любимые с детства новогодние песни и новые композиции.
    Ведущими "Великого Новорічного Концерту" станут лица телеканала "Украина" — Алексей Суханов (ток-шоу "Говорить Україна"), Ильяс Сахтара, Ольга Бутко и Тала Калатай ("Утро с Украиной"), Олег Панюта ("События недели", "События дня"), Ольга Грицик и Анна Панова ("События дня"), Александр Денисов ("Великий футбол").
    Источник: Собственный рип
    Доп. информация: Рип чистый. Без посторонних надписей. Выкладывается как есть.

    Качество: DVB
    Контейнер: TS
    Видео кодек: MPEG2
    Аудио кодек: MP2
    Видео: MPEG2 720x576 (4:3) 25.00fps 4 448 Kbps, 0.429 bit/pixel
    Аудио: MPEG1 48000Hz stereo 192 Кбит/сек

    Треклист:

    1. Mad Heads – «Новий рік»;
    2. Злата Огневич – «Песенка о медведях»;
    3. Виталий Козловский – «Зима»;
    4. Алена Винницкая – «Синий иней»;
    5. Группа "ТIK" – «Ялиночка»;
    6. LOBODA – «Смотришь в небо»;
    7. Alyosha – «Три белых коня»;
    8. С.К.А.Й. – «Смерека»;
    9. Василий Бондарчук – «Нiч»;
    10. Джаз-бэнд "Freedom Jazz" – «Happy New year»;
    11. Ирина Билык и Дима Коляденко – «Увезу тебя я в тундру»;
    12. Светлана Тарабарова, Вячеслав Соломка – «Любий, кохай мене»;
    13. Александр Кривошапко – «Зима»;
    14. Джамала – «Запуталась»;
    15. Время и Стекло, Сергей Сивохо – «Новогодняя»;
    16. Группа "Авиатор" – «С Новым годом»;
    17. Потап и Настя – «Уди-уди»;
    18. Александр Пономарев – «Кохана»;
    19. Ирина Билык – «Ти Ангел»;
    20. Группа «Вопли Видоплясова» - «Щедрик»;
    21. София Ротару – «Ты самый лучший»;
    22. София Ротару – «Моя любовь»;
    23. Man Sound – «Гимн Украины»;
    24. Сусанна Чахоян, Владимир Ткаченко – «Застольная ария»;
    25. Настя Петрик, Виктория Петрик, Василий Бондарчук, Дима Коляденко – «Снежинка»;
    26. Киевэлектро – «Курортная»;
    27. Ирина Розенфельд – «Разговор со счастьем»;
    28. Группа "ТНМК" - ???
    29. Анна Седокова – «Пираньи»;
    30. Макс Барских – «Снегом стать»;
    31. Анастасия Приходько – «Помоги мне»;
    32. Оля Полякова – «Люли»;
    33. Мария Яремчук – «Сірожине пірожине»;
    34. Детский хор "Веснiвка" – «Щедрик».

    Отчёт MediaInfo / BDInfo

    Общее
    Идентификатор : 1 (0x1)
    Полное имя : D:\Раздачи\Большой Новогодний концерт - Великий Новорiчний концерт - 2015\Большой Новогодний концерт - Великий Новорiчний концерт (2015, DVB, 31.12.2014) (by Nokia5150).ts
    Формат : MPEG-TS
    Размер файла : 5,43 Гбайт
    Продолжительность : 2 ч. 39 м.
    Режим общего битрейта : Переменный
    Общий поток : 4883 Кбит/сек
    Видео
    Идентификатор : 6621 (0x19DD)
    Идентификатор меню : 1 (0x1)
    Формат : MPEG Video
    Версия формата : Version 2
    Профиль формата : Main@Main
    Параметр BVOP формата : Да
    Параметр матрицы формата : Выборочная
    Параметр GOP формата : Variable
    Format_Settings_PictureStructure : Frame
    Идентификатор кодека : 2
    Продолжительность : 2 ч. 39 м.
    Вид битрейта : Переменный
    Битрейт : 4448 Кбит/сек
    Максимальный битрейт : 15,0 Мбит/сек
    Ширина : 720 пикселей
    Высота : 576 пикселей
    Соотношение сторон : 4:3
    Частота кадров : 25,000 кадров/сек
    Стандарт вещания : PAL
    Цветовое пространство : YUV
    Субдискретизация насыщенности : 4:2:0
    Битовая глубина : 8 бит
    Тип развёртки : Чересстрочная
    Порядок развёртки : Верхнее поле первое
    Метод сжатия : С потерями
    Бит/(Пиксели*Кадры) : 0.429
    Временной код первого кадра : 00:00:00:00
    Оригинал временного кода : Group of pictures header
    Размер потока : 4,95 Гбайт (91%)
    Аудио
    Идентификатор : 6622 (0x19DE)
    Идентификатор меню : 1 (0x1)
    Формат : MPEG Audio
    Версия формата : Version 1
    Профиль формата : Layer 2
    Идентификатор кодека : 3
    Продолжительность : 2 ч. 39 м.
    Вид битрейта : Постоянный
    Битрейт : 192 Кбит/сек
    Каналы : 1 канал
    Частота : 48,0 КГц
    Метод сжатия : С потерями
    Задержка видео : 20 мс.
    Размер потока : 219 Мбайт (4%)
    Язык : Ukrainian

    Скриншоты

    Скринлист


    Скачать .torrent

    Скачать торрент-файл бесплатно и на максимальной скорости!

    Как скачивать? · Что такое торрент? · Рейтинг и ограничения

    !ВНИМАНИЕ!
    Сайт не распространяет и не хранит электронные версии произведений, а занимается лишь лишь предоставлением доступа к создаваемому пользователями каталогу ссылок на торрент-файлы, которые содержат только списки хеш-сумм, убедительная просьба с жалобами обращаться напрямую к пользователю. Файлы для обмена на трекере предоставлены пользователями сайта, и администрация не несёт ответственности за их содержание. Просьба не заливать файлы, защищенные авторскими правами, а также файлы нелегального содержания!

    [Профиль] [ЛС]
    Показать сообщения:    
    Ответить на тему

    Текущее время: Сегодня, в 20:54

    Часовой пояс: GMT + 2



    Вы не можете начинать темы
    Вы не можете отвечать на сообщения
    Вы не можете редактировать свои сообщения
    Вы не можете удалять свои сообщения
    Вы не можете голосовать в опросах
    Вы не можете прикреплять файлы к сообщениям
    Вы не можете скачивать файлы