BitTorrentTracker PerecTracker.org
BitTorrentTracker PerecTracker.org
    
Регистрация  ·  Вход
 
 · 
Забыли пароль?

  • Queen + Adam Lambert - Rock Big Ben Live [2015, Rock, HDTV 1080i]

    Ответить на тему
     
    Автор Сообщение

    Columb

    Создавать темы 04-Янв-2015 17:45

           

    [Цитировать]

    Queen + Adam Lambert
    Rock Big Ben Live
    Жанр: Rock
    Продолжительность: 01:01:23
    Год выпуска: 2015-01. Don't Stop Me Now
    02. I Want To Break Free
    03. Somebody To Love
    04. Another One Bites The Dust
    05. Under Pressure
    06. Fat Bottomed Girls
    07. Radio Ga Ga
    08. I Want It All
    09. Crazy Little Thing Called Love
    10. The Show Must Go On
    11. Bohemian Rhapsody
    12. Killer Queen
    13. Bohemian Rhapsody reprise
    14. We Will Rock You
    15. We Are The Champions
    16. God Save The Queen
    -Качество: HDTV 1080i
    Контейнер: TS
    Видео кодек: H.264
    Аудио кодек: AC3
    Видео: MPEG4 Video (H264) 1920x1080 25fps 8850 Kbps
    Аудио: Dolby AC3 48000Hz stereo 192kbps

    Отчёт MediaInfo / BDInfo

    GeneralID : 1 (0x1)Complete name : G:\Queen + Adam Lambert - Rock Big Ben Live.tsFormat : MPEG-TSFile size : 4.08 GiBDuration : 1h 1mnOverall bit rate mode : VariableOverall bit rate : 9 514 Kbps
    VideoID : 2301 (0x8FD)Menu ID : 1 (0x1)Format : AVCFormat/Info : Advanced Video CodecFormat profile : High@L4.0Format settings, CABAC : YesFormat settings, ReFrames : 4 framesCodec ID : 27Duration : 1h 1mnBit rate : 8 850 KbpsWidth : 1 920 pixelsHeight : 1 080 pixelsDisplay aspect ratio : 16:9Frame rate : 25.000 fpsStandard : ComponentColor space : YUVChroma subsampling : 4:2:0Bit depth : 8 bitsScan type : MBAFFBits/(Pixel*Frame) : 0.171Stream size : 3.79 GiB (93%)Color primaries : BT.709Transfer characteristics : BT.709Matrix coefficients : BT.709
    AudioID : 2310 (0x906)Menu ID : 1 (0x1)Format : AC-3Format/Info : Audio Coding 3Mode extension : CM (complete main)Format settings, Endianness : BigCodec ID : 6Duration : 1h 1mnBit rate mode : ConstantBit rate : 192 KbpsChannel(s) : 2 channelsChannel positions : Front: L RSampling rate : 48.0 KHzBit depth : 16 bitsCompression mode : LossyStream size : 84.3 MiB (2%)Language : English

    Скриншоты

    Скачать .torrent

    Скачать торрент-файл бесплатно и на максимальной скорости!

    Как скачивать? · Что такое торрент? · Рейтинг и ограничения

    !ВНИМАНИЕ!
    Сайт не распространяет и не хранит электронные версии произведений, а занимается лишь лишь предоставлением доступа к создаваемому пользователями каталогу ссылок на торрент-файлы, которые содержат только списки хеш-сумм, убедительная просьба с жалобами обращаться напрямую к пользователю. Файлы для обмена на трекере предоставлены пользователями сайта, и администрация не несёт ответственности за их содержание. Просьба не заливать файлы, защищенные авторскими правами, а также файлы нелегального содержания!

    [Профиль] [ЛС]
    Показать сообщения:    
    Ответить на тему

    Текущее время: Сегодня, в 21:59

    Часовой пояс: GMT + 2



    Вы не можете начинать темы
    Вы не можете отвечать на сообщения
    Вы не можете редактировать свои сообщения
    Вы не можете удалять свои сообщения
    Вы не можете голосовать в опросах
    Вы не можете прикреплять файлы к сообщениям
    Вы не можете скачивать файлы