BitTorrentTracker PerecTracker.org
BitTorrentTracker PerecTracker.org
    
Регистрация  ·  Вход
 
 · 
Забыли пароль?

  • Муви 43 / Movie 43 (Стивен Брилл / Steven Brill, Питер Фаррелли / Peter Farrelly, Боб Оденкирк / Bob Odenkirk) [2013 г., комедия, BDRip-AVC]

    Ответить на тему
     
    Автор Сообщение

    Columb

    Создавать темы 26-Фев-2013 08:57

           

    [Цитировать]

    Муви 43 / Movie 43-Год выпуска: 2013
    Страна: США
    Жанр: комедия
    Продолжительность: 01:39:31
    Перевод: Любительский одноголосый (Гоблинa)
    Субтитры: нет
    Оригинальная аудио дорожка: нет
    Режиссер: Стивен Брилл / Steven Brill, Питер Фаррелли / Peter Farrelly, Боб Оденкирк / Bob Odenkirk
    Рейтинг R - Детям до 17 лет обязательно присутствие взрослого
    Внимание! В фильме присутствует ненормативная лексика


    В ролях: Холли Берри, Джерард Батлер, Анна Фэрис, Хью Джекман, Джонни Ноксвил, Кристофер Минц-Плассе, Шонн Уильям Скотт, Эмма Стоун, Кейт Уинслет, Деннис Куэйд, Грег Киннер, Коммон
    Описание: 25 cуперзвезд первой величины — в комедийном проекте, который состоит из двух десятков мини-новелл с нескончаемым потоком шуток, гэгов, острот и пародий, о страстях и страстишках человеческих.
    Качество: BDRip-AVC
    Формат: MKV
    Видео кодек: H.264
    Аудио кодек: AC3
    Видео: 1024x576, 24.000 fps, ~2 199 Kbps, 0.155 bit/pixel
    Аудио: 16 bits, 448 kbps, 48,0 kHz, 5.1
    Релиз от: hintoz

    MediaInfo

    General
    Unique ID : 225128595722919841584311162237415499216 (0xA95E30BD0287C2C5A5D2BF9C436AA5D0)
    Complete name : F:VideoUploadFilmsMovie.43.2013.BDRip.AVC.AVO.Goblin-hintoz.mkv
    Format : Matroska
    Format version : Version 4 / Version 2
    File size : 1.84 GiB
    Duration : 1h 39mn
    Overall bit rate : 2 647 Kbps
    Movie name : Rip by hintoz
    Encoded date : UTC 2013-02-25 20:41:54
    Writing application : mkvmerge v6.0.0 ('Coming Up For Air') built on Jan 20 2013 09:52:00
    Writing library : libebml v1.3.0 + libmatroska v1.4.0
    Video
    ID : 1
    Format : AVC
    Format/Info : Advanced Video Codec
    Format profile : High@L3.1
    Format settings, CABAC : Yes
    Format settings, ReFrames : 5 frames
    Codec ID : V_MPEG4/ISO/AVC
    Duration : 1h 39mn
    Bit rate : 2 199 Kbps
    Width : 1 024 pixels
    Height : 576 pixels
    Display aspect ratio : 16:9
    Frame rate mode : Constant
    Frame rate : 24.000 fps
    Color space : YUV
    Chroma subsampling : 4:2:0
    Bit depth : 8 bits
    Scan type : Progressive
    Bits/(Pixel*Frame) : 0.155
    Stream size : 1.49 GiB (81%)
    Writing library : x264 core 129 r2245 bc13772
    Encoding settings : cabac=1 / ref=5 / deblock=1:0:0 / analyse=0x3:0x133 / me=umh / subme=10 / psy=1 / psy_rd=1.00:0.15 / mixed_ref=1 / me_range=32 / chroma_me=1 / trellis=2 / 8x8dct=1 / cqm=0 / deadzone=21,11 / fast_pskip=0 / chroma_qp_offset=-3 / threads=12 / lookahead_threads=2 / sliced_threads=0 / nr=0 / decimate=0 / interlaced=0 / bluray_compat=0 / constrained_intra=0 / bframes=4 / b_pyramid=2 / b_adapt=2 / b_bias=0 / direct=3 / weightb=1 / open_gop=0 / weightp=2 / keyint=240 / keyint_min=24 / scenecut=40 / intra_refresh=0 / rc_lookahead=40 / rc=2pass / mbtree=1 / bitrate=2199 / ratetol=1.0 / qcomp=0.60 / qpmin=0 / qpmax=69 / qpstep=4 / cplxblur=20.0 / qblur=0.5 / ip_ratio=1.40 / aq=1:1.00
    Language : English
    Default : Yes
    Forced : No
    Audio
    ID : 2
    Format : AC-3
    Format/Info : Audio Coding 3
    Mode extension : CM (complete main)
    Format settings, Endianness : Big
    Codec ID : A_AC3
    Duration : 1h 39mn
    Bit rate mode : Constant
    Bit rate : 448 Kbps
    Channel(s) : 6 channels
    Channel positions : Front: L C R, Side: L R, LFE
    Sampling rate : 48.0 KHz
    Bit depth : 16 bits
    Compression mode : Lossy
    Stream size : 319 MiB (17%)
    Title : AVO Дмитрий "Гоблин" Пучков
    Language : Russian
    Default : Yes
    Forced : No

    Скриншоты




    Скачать .torrent

    Скачать торрент-файл бесплатно и на максимальной скорости!

    Как скачивать? · Что такое торрент? · Рейтинг и ограничения

    !ВНИМАНИЕ!
    Сайт не распространяет и не хранит электронные версии произведений, а занимается лишь лишь предоставлением доступа к создаваемому пользователями каталогу ссылок на торрент-файлы, которые содержат только списки хеш-сумм, убедительная просьба с жалобами обращаться напрямую к пользователю. Файлы для обмена на трекере предоставлены пользователями сайта, и администрация не несёт ответственности за их содержание. Просьба не заливать файлы, защищенные авторскими правами, а также файлы нелегального содержания!

    [Профиль] [ЛС]

    -746

    Создавать темы 06-Янв-2014 00:40 (спустя 10 месяцев 7 дней)

           

    Топик был перенесен из форума Зарубежные Фильмы (Новинки) в форум Фильмы 2011-2013

    -sasha2006 

    _________________
    Как бы ты высоко не летал, не забывай, с кем ты ползал..
     
    Показать сообщения:    
    Ответить на тему

    Текущее время: Сегодня, в 16:30

    Часовой пояс: GMT + 2



    Вы не можете начинать темы
    Вы не можете отвечать на сообщения
    Вы не можете редактировать свои сообщения
    Вы не можете удалять свои сообщения
    Вы не можете голосовать в опросах
    Вы не можете прикреплять файлы к сообщениям
    Вы не можете скачивать файлы