BitTorrentTracker PerecTracker.org
BitTorrentTracker PerecTracker.org
    
Регистрация  ·  Вход
 
 · 
Забыли пароль?

  • Biffy Clyro. Visions Westend Indoor Festival 2012 [2015, Alternative rock/Post-hardcore/Experimental rock, HDTV 720p]

    Ответить на тему
     
    Автор Сообщение

    Columb

    Создавать темы 04-Янв-2015 16:21

           

    [Цитировать]

    Biffy Clyro. Visions Westend Indoor Festival 2012
    Жанр: Alternative rock/Post-hardcore/Experimental rock
    Продолжительность: 01:07:42
    Год выпуска: 2015
    Описание: Выступление шотландского рок бэнда Biffy Clyro на сцене клуба FZW в Дортмунде в рамках фестиваля Visions Westend Indoor 2012 nov03
    Доп. информация: Собственная запись со спутникового канала Einsfestival 2015 jan03
    Треклист:
    Stingin' Belle
    The Captain
    27
    Modern Magic Formula
    Folding Stars
    Victory Over The Sun
    God & Satan
    Who's Got A Match?
    The Joke's On Us
    Bubbles
    Booooom Blast & Ruin
    Sounds Like Balloons
    Many Of Horror
    That Golden Rule
    Hope For An Angel
    Living Is A Problem
    Mountains
    Качество: HDTV 720p
    Контейнер: TS
    Видео кодек: H.264
    Аудио кодек: AC3
    Видео: Mpeg4 AVC, 1280x720, 13300 kbps, 50 fps Progressive
    Аудио: AC3, 448 kbps, 48 kHz, stereo
    Аудио 2: MP2, 192 kbps, 48 kHz, stereo
    Аудио 3: MP2, 192 kbps, 48 kHz, stereo

    Отчёт MediaInfo / BDInfo

    GeneralID : 1 (0x1)Complete name : D:\Downloads\Biffy Clyro. Visions Westend Indoor Festival 2012.tsFormat : MPEG-TSFile size : 7.04 GiBDuration : 1h 7mnOverall bit rate mode : VariableOverall bit rate : 14.9 Mbps
    VideoID : 5411 (0x1523)Menu ID : 1 (0x1)Format : AVCFormat/Info : Advanced Video CodecFormat profile : High@L4.0Format settings, CABAC : YesFormat settings, ReFrames : 4 framesCodec ID : 27Duration : 1h 7mnBit rate : 13.3 MbpsWidth : 1 280 pixelsHeight : 720 pixelsDisplay aspect ratio : 16:9Frame rate : 50.000 fpsColor space : YUVChroma subsampling : 4:2:0Bit depth : 8 bitsScan type : ProgressiveBits/(Pixel*Frame) : 0.289Stream size : 6.30 GiB (89%)
    Audio #1ID : 5412 (0x1524)Menu ID : 1 (0x1)Format : MPEG AudioFormat version : Version 1Format profile : Layer 2Codec ID : 3Duration : 1h 7mnBit rate mode : ConstantBit rate : 192 KbpsChannel(s) : 2 channelsSampling rate : 48.0 KHzCompression mode : LossyStream size : 93.0 MiB (1%)Language : German
    Audio #2ID : 5413 (0x1525)Menu ID : 1 (0x1)Format : MPEG AudioFormat version : Version 1Format profile : Layer 2Codec ID : 3Duration : 1h 7mnBit rate mode : ConstantBit rate : 192 KbpsChannel(s) : 2 channelsSampling rate : 48.0 KHzCompression mode : LossyStream size : 93.0 MiB (1%)
    Audio #3ID : 5416 (0x1528)Menu ID : 1 (0x1)Format : AC-3Format/Info : Audio Coding 3Mode extension : CM (complete main)Format settings, Endianness : BigCodec ID : 6Duration : 1h 7mnBit rate mode : ConstantBit rate : 448 KbpsChannel(s) : 2 channelsChannel positions : Front: L RSampling rate : 48.0 KHzBit depth : 16 bitsCompression mode : LossyStream size : 217 MiB (3%)Language : German
    TextID : 5414 (0x1526)-100Menu ID : 1 (0x1)Format : TeletextLanguage : German
    MenuID : 5410 (0x1522)Menu ID : 1 (0x1)Duration : 1h 7mnList : 5411 (0x1523) (AVC) / 5412 (0x1524) (MPEG Audio, German) / 5413 (0x1525) (MPEG Audio) / 5416 (0x1528) (AC-3, German) / 5414 (0x1526) ()Language : / German / / German

    Скриншоты

    Скачать .torrent

    Скачать торрент-файл бесплатно и на максимальной скорости!

    Как скачивать? · Что такое торрент? · Рейтинг и ограничения

    !ВНИМАНИЕ!
    Сайт не распространяет и не хранит электронные версии произведений, а занимается лишь лишь предоставлением доступа к создаваемому пользователями каталогу ссылок на торрент-файлы, которые содержат только списки хеш-сумм, убедительная просьба с жалобами обращаться напрямую к пользователю. Файлы для обмена на трекере предоставлены пользователями сайта, и администрация не несёт ответственности за их содержание. Просьба не заливать файлы, защищенные авторскими правами, а также файлы нелегального содержания!

    [Профиль] [ЛС]
    Показать сообщения:    
    Ответить на тему

    Текущее время: Сегодня, в 12:38

    Часовой пояс: GMT + 2



    Вы не можете начинать темы
    Вы не можете отвечать на сообщения
    Вы не можете редактировать свои сообщения
    Вы не можете удалять свои сообщения
    Вы не можете голосовать в опросах
    Вы не можете прикреплять файлы к сообщениям
    Вы не можете скачивать файлы