BitTorrentTracker PerecTracker.org
BitTorrentTracker PerecTracker.org
    
Регистрация  ·  Вход
 
 · 
Забыли пароль?

  • Ледниковый период 3 Доктор Штоа / Ice Age: Dawn of the Dinosaurs (Карлос Салдана/Агент Диего) [2009/2015, пародия, мультфильм, приключения, комедия, BDRip]

    Ответить на тему
     
    Автор Сообщение

    Columb

    Создавать темы 04-Янв-2015 16:16

           

    [Цитировать]

    Ледниковый период 3 Доктор Штоа / Ice Age: Dawn of the Dinosaurs
    Дата/Год выпуска: 2009/2015
    Страна: США/Россия
    Жанр: пародия, мультфильм, приключения, комедия
    Продолжительность: 01:17:53
    Перевод: Профессиональный (многоголосый закадровый)
    Доп. инфо о переводе: перевод студии Doublezett
    Русские субтитры: нет
    Режиссер: Карлос Салдана/Агент Диего
    Описание: Сеня случайно открывает портал в глубокое прошлое и нарушает пространственно-временной континиум, туда проваливаясь.
    Главгерои следуют за нерадивым сантехником и натыкаются на местного аборигена, именующего себя никем иным, как повелителем времени, Доктором Штоа. Он рассказывает им, что происходящее вокруг вовсе не прошлое, а замкнутая им временная воронка, замкнутость которой нарушил Сеня. Вселенной грозит погибель, и есть только один способ все исправить, вернуться в прошлое и изменить его.

    Интересные факты

    Изначально было три варианта отсылок сценария к таким кинофильмам, как: Эффект Бабочки, Назад в будущее и Доктор Кто. Выбор почему-то пал на Доктора кто,
    хотя автор о сериале знал только понаслышке. Решив для ознакомления посмотреть парочку серий, автор втянулся в него с головой.
    Сценарий переписывался трижды.
    Впервые проект делается не в Sound Forge, как предыдущие ледники, а целиком в Vegas, но эта идея приходит в середине проекта, поэтому ищутся другие исходники
    с многодорожечным звуком (хотя в рендере звук все равно лишь стерео)
    Впервые проект делается в HD.
    Весь фильм озвучивается в рекордные сроки за два дня, за все остальное время писался сценарий.
    Впервые присутствует не только аудиоредактура, но и видео.
    Сэмпл: http://multi-up.com/1024415
    качество: BDRip
    формат: MKV
    Видео: 1 973 Kbps, 1280*720 (16:9), at 25.000 fps, AVC (Main@L5.1)
    Аудио: 256 Kbps, 44.1 KHz, 2 channels, MP3

    MediaInfo

    GeneralCount : 284Count of stream of this kind : 1Kind of stream : GeneralKind of stream : GeneralStream identifier : 0Inform : Matroska: 1.24 GiB, 1h 17mnUnique ID : 214607950268636859347269574465611505297Unique ID : 214607950268636859347269574465611505297 (0xA173FCDEAA28BCCA9CB38A809AB61E91)Count of video streams : 1Count of audio streams : 1Video_Format_List : AVCVideo_Format_WithHint_List : AVCCodecs Video : AVCVideo_Language_List : EnglishAudio_Format_List : MPEG AudioAudio_Format_WithHint_List : MPEG Audio (MP3)Audio codecs : MPEG-1 Audio layer 3Audio_Language_List : EnglishComplete name : D:\Video\IceAge3DoctorWtoa.mkvFolder name : D:\VideoFile name : IceAge3DoctorWtoaFile extension : mkvFormat : MatroskaFormat : MatroskaFormat/Url : http://packs.matroska.org/Format/Extensions usually used : mkv mk3d mka mksCommercial name : MatroskaFormat version : Version 1Codec : MatroskaCodec : MatroskaCodec/Url : http://packs.matroska.org/Codec/Extensions usually used : mkv mk3d mka mksFile size : 1328499329File size : 1.24 GiBFile size : 1 GiBFile size : 1.2 GiBFile size : 1.24 GiBFile size : 1.237 GiBDuration : 4673960Duration : 1h 17mnDuration : 1h 17mn 53s 960msDuration : 1h 17mnDuration : 01:17:53.960Overall bit rate : 2273874Overall bit rate : 2 274 KbpsStream size : 26436954Stream size : 25.2 MiB (2%)Stream size : 25 MiBStream size : 25 MiBStream size : 25.2 MiBStream size : 25.21 MiBStream size : 25.2 MiB (2%)Proportion of this stream : 0.01990Encoded date : UTC 2015-01-04 08:04:21File creation date : UTC 2015-01-04 08:04:21.252File creation date (local) : 2015-01-04 11:04:21.252File last modification date : UTC 2015-01-04 08:44:29.505File last modification date (local) : 2015-01-04 11:44:29.505Writing application : AVSMatroskaFileWriting library : libebml v0.7.7 + libmatroska v0.8.1Writing library : libebml v0.7.7 + libmatroska v0.8.1
    VideoCount : 263Count of stream of this kind : 1Kind of stream : VideoKind of stream : VideoStream identifier : 0StreamOrder : 0Inform : 1 973 Kbps, 1280*720 (16:9), at 25.000 fps, AVC (Main@L5.1) (CABAC / 2 Ref Frames)ID : 1ID : 1Unique ID : 3175011721Format : AVCFormat/Info : Advanced Video CodecFormat/Url : http://developers.videolan.org/x264.htmlCommercial name : AVCFormat profile : Main@L5.1Format settings : CABAC / 2 Ref FramesFormat settings, CABAC : YesFormat settings, CABAC : YesFormat settings, ReFrames : 2Format settings, ReFrames : 2 framesInternet media type : video/H264Codec ID : V_MPEG4/ISO/AVCCodec ID/Url : http://ffdshow-tryout.sourceforge.net/Codec : V_MPEG4/ISO/AVCCodec : AVCCodec/Family : AVCCodec/Info : Advanced Video CodecCodec/Url : http://ffdshow-tryout.sourceforge.net/Codec profile : Main@L5.1Codec settings : CABAC / 2 Ref FramesCodec settings, CABAC : YesCodec_Settings_RefFrames : 2Duration : 4673960Duration : 1h 17mnDuration : 1h 17mn 53s 960msDuration : 1h 17mnDuration : 01:17:53.960Bit rate : 1972624Bit rate : 1 973 KbpsWidth : 1280Width : 1 280 pixelsHeight : 720Height : 720 pixelsPixel aspect ratio : 1.000Display aspect ratio : 1.778Display aspect ratio : 16:9Frame rate mode : CFRFrame rate mode : ConstantFrame rate : 25.000Frame rate : 25.000 fpsFrame count : 116849Resolution : 8Resolution : 8 bitsColorimetry : 4:2:0Color space : YUVChroma subsampling : 4:2:0Bit depth : 8Bit depth : 8 bitsScan type : ProgressiveScan type : ProgressiveInterlacement : PPFInterlacement : ProgressiveBits/(Pixel*Frame) : 0.086Delay : 0Delay : 00:00:00.000Delay, origin : ContainerDelay, origin : ContainerStream size : 1152495655Stream size : 1.07 GiB (87%)Stream size : 1 GiBStream size : 1.1 GiBStream size : 1.07 GiBStream size : 1.073 GiBStream size : 1.07 GiB (87%)Proportion of this stream : 0.86752Default : YesDefault : YesForced : NoForced : No
    AudioCount : 220Count of stream of this kind : 1Kind of stream :12:36:19AudioKind of stream : AudioStream identifier : 0StreamOrder : 1Inform : 256 Kbps, 44.1 KHz, 2 channels, MPEG Audio (MP3) (Version 1) (Layer 3)ID : 2ID : 2Unique ID : 642195607Format : MPEG AudioCommercial name : MPEG AudioFormat version : Version 1Format profile : Layer 3Internet media type : audio/mpegCodec ID : A_MPEG/L3Codec ID/Hint : MP3Codec ID/Url : http://www.iis.fraunhofer.de/amm/index.htmlCodec : MPA1L3Codec : MPEG-1 Audio layer 3Codec/Family : MPEG-ACodec/Info : MPEG1 or 2 Audio Layer 3Codec/Url : http://www.iis.fraunhofer.de/amm/index.htmlDuration : 4673960Duration : 1h 17mnDuration : 1h 17mn 53s 960msDuration : 1h 17mnDuration : 01:17:53.960Bit rate mode : CBRBit rate mode : ConstantBit rate : 256000Bit rate : 256 KbpsChannel(s) : 2Channel(s) : 2 channelsSampling rate : 44100Sampling rate : 44.1 KHzSamples count : 206121636Compression mode : LossyCompression mode : LossyDelay : 0Delay : 00:00:00.000Delay, origin : ContainerDelay, origin : ContainerDelay relative to video : 0Video0 delay : 0Stream size : 149566720Stream size : 143 MiB (11%)Stream size : 143 MiBStream size : 143 MiBStream size : 143 MiBStream size : 142.6 MiBStream size : 143 MiB (11%)Proportion of this stream : 0.11258Writing library : LAMELAME_MAJOR_VERSIWriting library : LAMELAME_MAJOR_VERSIDefault : YesDefault : YesForced : NoForced : No

    Скриншоты

    Скачать .torrent

    Скачать торрент-файл бесплатно и на максимальной скорости!

    Как скачивать? · Что такое торрент? · Рейтинг и ограничения

    !ВНИМАНИЕ!
    Сайт не распространяет и не хранит электронные версии произведений, а занимается лишь лишь предоставлением доступа к создаваемому пользователями каталогу ссылок на торрент-файлы, которые содержат только списки хеш-сумм, убедительная просьба с жалобами обращаться напрямую к пользователю. Файлы для обмена на трекере предоставлены пользователями сайта, и администрация не несёт ответственности за их содержание. Просьба не заливать файлы, защищенные авторскими правами, а также файлы нелегального содержания!

    [Профиль] [ЛС]
    Показать сообщения:    
    Ответить на тему

    Текущее время: Сегодня, в 04:09

    Часовой пояс: GMT + 2



    Вы не можете начинать темы
    Вы не можете отвечать на сообщения
    Вы не можете редактировать свои сообщения
    Вы не можете удалять свои сообщения
    Вы не можете голосовать в опросах
    Вы не можете прикреплять файлы к сообщениям
    Вы не можете скачивать файлы