BitTorrentTracker PerecTracker.org
BitTorrentTracker PerecTracker.org
    
Регистрация  ·  Вход
 
 · 
Забыли пароль?

  • Юбилейный концерт Игоря Крутого из Государственного Кремлевского дворца (Эфир 03.01.2015) [2014, Рор, HDTV 1080i]

    Ответить на тему
     
    Автор Сообщение

    Columb

    Создавать темы 04-Янв-2015 12:26

           

    [Цитировать]

    Юбилейный концерт Игоря Крутого из Государственного Кремлевского дворца (Эфир 03.01.2015)
    Год выпуска: 2015
    Страна: Россия
    Жанр: Рор
    Продолжительность: ~ 02:17:00
    Описание: В грандиозной шоу-программе на самой престижной сцене России в юбилее маэстро выступают звезды мировой сцены и яркие исполнители современности. Поздравить Игоря Крутого с 60-летием придут всемирно известные артисты - Андреа Бочелли, Лара Фабиан, Дмитрий Хворостовский, Суми Чо, Юрий Башмет, Аида Гарифулина. В сопровождении симфонического оркестра под управлением Уильяма Росса они исполнят великолепные песни, написанные специально для них Игорем Крутым.
    Качество: HDTV 1080i
    Формат: TS
    Видео кодек: H.264
    Аудио кодек: MP2
    Видео: MPEG-TS AVC, 9308 Кбит/с, 1920x1080, 25.000 кадр/с 0.18 bit/pixel
    Аудио: 48 kHz, MP2, 2 ch, ~224.00 kbps avg

    MI

    ОбщееИдентификатор : 1 (0x1)Полное имя : D:\Запись\Jubilejnyj.koncert.Igorja.Krutogo.HDTV(1080i).MediaClub.tsФормат : MPEG-TSРазмер файла : 9,63 ГбайтПродолжительность : 2 ч. 17 м.Режим общего битрейта : ПеременныйОбщий поток : 10,0 Мбит/сек
    ВидеоИдентификатор : 41 (0x29)Идентификатор меню : 1 (0x1)Формат : AVCФормат/Информация : Advanced Video CodecПрофиль формата : High@L4.0Параметр CABAC формата : ДаПараметр ReFrames формата : 3 кадраИдентификатор кодека : 27Продолжительность : 2 ч. 17 м.Битрейт : 9308 Кбит/секШирина : 1920 пикселейВысота : 1080 пикселейСоотношение сторон : 16:9Частота кадров : 25,000 кадров/секСтандарт вещания : ComponentЦветовое пространство : YUVСубдискретизация насыщенности : 4:2:0Битовая глубина : 8 битТип развёртки : ЧересстрочнаяПорядок развёртки : Верхнее поле первоеБит/(Пиксели*Кадры) : 0.180Размер потока : 8,93 Гбайт (93%)Основные цвета : BT.709Характеристики трансфера : BT.709Коэффициенты матрицы : BT.709
    АудиоИдентификатор : 44 (0x2C)Идентификатор меню : 1 (0x1)Формат : MPEG AudioВерсия формата : Version 1Профиль формата : Layer 2Идентификатор кодека : 3Продолжительность : 2 ч. 17 м.Вид битрейта : ПостоянныйБитрейт : 224 Кбит/секКаналы : 2 каналаЧастота : 48,0 КГцМетод сжатия : С потерямиРазмер потока : 220 Мбайт (2%)Язык : Russian
    Отдельное спасибо olegka7373 за предоставление материала.
    Релиз:

    Эфир от 03-01-2015 Скриншоты

    Скачать .torrent

    Скачать торрент-файл бесплатно и на максимальной скорости!

    Как скачивать? · Что такое торрент? · Рейтинг и ограничения

    !ВНИМАНИЕ!
    Сайт не распространяет и не хранит электронные версии произведений, а занимается лишь лишь предоставлением доступа к создаваемому пользователями каталогу ссылок на торрент-файлы, которые содержат только списки хеш-сумм, убедительная просьба с жалобами обращаться напрямую к пользователю. Файлы для обмена на трекере предоставлены пользователями сайта, и администрация не несёт ответственности за их содержание. Просьба не заливать файлы, защищенные авторскими правами, а также файлы нелегального содержания!

    [Профиль] [ЛС]
    Показать сообщения:    
    Ответить на тему

    Текущее время: Сегодня, в 22:17

    Часовой пояс: GMT + 2



    Вы не можете начинать темы
    Вы не можете отвечать на сообщения
    Вы не можете редактировать свои сообщения
    Вы не можете удалять свои сообщения
    Вы не можете голосовать в опросах
    Вы не можете прикреплять файлы к сообщениям
    Вы не можете скачивать файлы