BitTorrentTracker PerecTracker.org
BitTorrentTracker PerecTracker.org
    
Регистрация  ·  Вход
 
 · 
Забыли пароль?

  • Все будет вкусно / Все буде смачно, Выпуск 117-118 из ??? [2015, Кулинария, WEBRip, RUS] (Видеоурок)

    Ответить на тему
     
    Автор Сообщение

    Columb

    Создавать темы 04-Янв-2015 12:24

           

    [Цитировать]

    Все будет вкусно / Все буде смачно
    Страна: Украина
    Тематика: Кулинария
    Тип раздаваемого материала: Видеоурок
    Продолжительность: ~00:50:00
    Год выпуска: 2015
    Язык: Русский
    Перевод: Не требуется
    Описание: Каждый из нас хочет развивать свои навыки, и кулинарные способности среди них не исключение. Новый кулинарный проект собственного производства телеканала СТБ «Все буде смачно!» помогает достичь идеала каждому, кто чувствует в себе желание овладеть мастерством приготовления различных блюд.
    Программа стартовала в эфире 26 октября 2013 года и с первого же выпуска полюбилась миллионам телезрителей. Проект выходит каждую субботу и воскресенье в 9:00. Впервые на телеканале СТБ в кулинарном проекте используются такие технологии съемки, как slowmotion и макросъемка, чтобы максимально точно объяснить и показать процесс приготовления вкусных шедевров.
    Экспертами проекта стали лучшие кулинары Украины – Эктор Хименес-Браво, Сергей Калинин, Татьяна Литвинова и Алла Ковальчук. Они вместе с ведущей Надеждой Матвеевой каждый выпуск программы обучают приглашенных звезд всем секретам и тонкостям кулинарного мастерства и раскрывают секреты, которые таят в себе самые любимые и привычные блюда. Ведь часто из-за какого-то незначительного нюанса не удается приготовить действительно вкусно.
    Доп. информация: Выпуски 117-118 из ???
    Качество: WEBRip
    Формат: MP4
    Видео кодек: AVC
    Аудио кодек: AAC
    Видео: AVC, 640x480, 25.00fps, 800 kbps
    Аудио: AAC, 48 kHz, AAC, 2 ch, 128.00 kbps

    Скриншоты

    MediaInfo

    Общее
    Полное имя : Z:\Все буде смачно\084.(06.09.2014).Шарлотка.mp4
    Формат : MPEG-4
    Профиль формата : Base Media
    Идентификатор кодека : isom
    Размер файла : 317 Мбайт
    Продолжительность : 47 м.
    Режим общего битрейта : Постоянный
    Общий поток : 929 Кбит/сек
    Программа кодирования : Lavf55.12.100
    Видео
    Идентификатор : 2
    Формат : AVC
    Формат/Информация : Advanced Video Codec
    Профиль формата : Baseline@L3.0
    Параметр CABAC формата : Нет
    Параметр ReFrames формата : 2 кадра
    Параметр GOP формата : M=1, N=12
    Идентификатор кодека : avc1
    Идентификатор кодека/Информация : Advanced Video Coding
    Продолжительность : 47 м.
    Вид битрейта : Постоянный
    Битрейт : 800 Кбит/сек
    Ширина : 640 пикселей
    Высота : 480 пикселей
    Соотношение сторон : 4:3
    Режим частоты кадров : Постоянный
    Частота кадров : 25,000 кадров/сек
    Цветовое пространство : YUV
    Субдискретизация насыщенности : 4:2:0
    Битовая глубина : 8 бит
    Тип развёртки : Прогрессивная
    Бит/(Пиксели*Кадры) : 0.104
    Размер потока : 272 Мбайт (86%)
    Аудио
    Идентификатор : 1
    Формат : AAC
    Формат/Информация : Advanced Audio Codec
    Профиль формата : LC
    Идентификатор кодека : 40
    Продолжительность : 47 м.
    Duration_LastFrame : -9 мс.
    Вид битрейта : Постоянный
    Битрейт : 128 Кбит/сек
    Каналы : 2 канала
    Расположение каналов : Front: L R
    Частота : 48,0 КГц
    Метод сжатия : С потерями
    Размер потока : 43,6 Мбайт (14%)
    Язык : English
    ***************************************

    Внимание! Раздача ведётся путём добавления новых серий

    Внимание! Раздача ведётся путём добавления новых серий; при каждом добавлении создётся новый торрент. Чтобы начать докачку новой серии, пользователям необходимо сделать следующее: (1) остановить скачивание, (2) удалить старый торрент у себя из клиента (старые серии удалять не надо), (3) скачать новый торрент и запустить его у себя в клиенте вместо старого, при этом указать клиенту путь в старую папку куда и должно происходить скачивание новых серий.
    Ваш клиент при этом должен произвести хеширование (проверку) старой папки (если не производит сам - помогите ему сделать это), и будет докачивать только те серии которых у вас ещё нет. Старые серии при этом не удаляются, а продолжают раздаваться!
    Eсли вы уже удалили старые серии, то предотвратить повторную закачку старых серий можно, отжав галочку в соответсвующих местах при запуске нового торрента.
    Скачать .torrent

    Скачать торрент-файл бесплатно и на максимальной скорости!

    Как скачивать? · Что такое торрент? · Рейтинг и ограничения

    !ВНИМАНИЕ!
    Сайт не распространяет и не хранит электронные версии произведений, а занимается лишь лишь предоставлением доступа к создаваемому пользователями каталогу ссылок на торрент-файлы, которые содержат только списки хеш-сумм, убедительная просьба с жалобами обращаться напрямую к пользователю. Файлы для обмена на трекере предоставлены пользователями сайта, и администрация не несёт ответственности за их содержание. Просьба не заливать файлы, защищенные авторскими правами, а также файлы нелегального содержания!

    [Профиль] [ЛС]
    Показать сообщения:    
    Ответить на тему

    Текущее время: Сегодня, в 03:15

    Часовой пояс: GMT + 2



    Вы не можете начинать темы
    Вы не можете отвечать на сообщения
    Вы не можете редактировать свои сообщения
    Вы не можете удалять свои сообщения
    Вы не можете голосовать в опросах
    Вы не можете прикреплять файлы к сообщениям
    Вы не можете скачивать файлы