BitTorrentTracker PerecTracker.org
BitTorrentTracker PerecTracker.org
    
Регистрация  ·  Вход
 
 · 
Забыли пароль?

  • UFC 182: Jones - Cormier / Джон Джонс - Даниэль Кормье / Setanta Sports Eurasia HD [03.01.2015, MMA, HDTVRip 1080i, RU]

    Ответить на тему
     
    Автор Сообщение

    Columb

    Создавать темы 04-Янв-2015 10:00

           

    [Цитировать]

    UFC 182: Jones - Cormier / Джон Джонс - Даниэль Кормье
    Дата: 03.01.2015
    Вид спорта: MMA
    Участники: Джон Джонс, Даниэль Кормье.
    Язык комментариев: Русский (Артем Лобов, Руслан Берлин)
    Описание: Джонс Джонс (20-1) - Даниэль Кормье (15-0) Бой за пояс чемпиона UFC в полутяжелом весе (84-93 кг)
    Доп. информация: Запись с torrent tv
    Качество: HDTVRip
    Формат видео: TS
    Видео: AVC, 1920x1080i (16:9), 25 fps, 6860 kbps
    Аудио 1: MP2 48 khz, 2ch, 192 kbps - RU
    Аудио 2: MP2 48 khz, 2ch, 192 kbps - интершум

    Продолжительность

    00:41:58

    MediaInfo

    General
    ID : 36526 (0x8EAE)
    Complete name : D:\FINAL\UFC 182 Jones vs. Cormier.ts
    Format : MPEG-TS
    File size : 2.22 GiB
    Duration : 41mn 58s
    Overall bit rate mode : Variable
    Overall bit rate : 7 562 Kbps
    Video
    ID : 70 (0x46)
    Menu ID : 1 (0x1)
    Format : AVC
    Format/Info : Advanced Video Codec
    Format profile : High@L4.0
    Format settings, CABAC : Yes
    Format settings, ReFrames : 3 frames
    Codec ID : 27
    Duration : 41mn 57s
    Bit rate mode : Constant
    Bit rate : 6 860 Kbps
    Width : 1 920 pixels
    Height : 1 080 pixels
    Display aspect ratio : 16:9
    Frame rate : 25.000 fps
    Color space : YUV
    Chroma subsampling : 4:2:0
    Bit depth : 8 bits
    Scan type : Interlaced
    Scan order : Top Field First
    Bits/(Pixel*Frame) : 0.132
    Stream size : 1.99 GiB (90%)
    Color primaries : BT.709
    Transfer characteristics : BT.709
    Matrix coefficients : BT.709
    Color range : Limited
    Audio #1
    ID : 68 (0x44)
    Menu ID : 1 (0x1)
    Format : MPEG Audio
    Format version : Version 1
    Format profile : Layer 2
    Codec ID : 3
    Duration : 41mn 58s
    Bit rate mode : Constant
    Bit rate : 192 Kbps
    Channel(s) : 2 channels
    Sampling rate : 48.0 KHz
    Compression mode : Lossy
    Delay relative to video : -72ms
    Stream size : 57.6 MiB (3%)
    Audio #2
    ID : 69 (0x45)
    Menu ID : 1 (0x1)
    Format : MPEG Audio
    Format version : Version 1
    Format profile : Layer 2
    Codec ID : 3
    Duration : 41mn 58s
    Bit rate mode : Constant
    Bit rate : 192 Kbps
    Channel(s) : 2 channels
    Sampling rate : 48.0 KHz
    Compression mode : Lossy
    Delay relative to video : -72ms
    Stream size : 57.6 MiB (3%)

    Скриншоты

    Итог

    Победа Джонса единогласным решением судей 49-46, 49-46, 49-46
    Скачать .torrent

    Скачать торрент-файл бесплатно и на максимальной скорости!

    Как скачивать? · Что такое торрент? · Рейтинг и ограничения

    !ВНИМАНИЕ!
    Сайт не распространяет и не хранит электронные версии произведений, а занимается лишь лишь предоставлением доступа к создаваемому пользователями каталогу ссылок на торрент-файлы, которые содержат только списки хеш-сумм, убедительная просьба с жалобами обращаться напрямую к пользователю. Файлы для обмена на трекере предоставлены пользователями сайта, и администрация не несёт ответственности за их содержание. Просьба не заливать файлы, защищенные авторскими правами, а также файлы нелегального содержания!

    [Профиль] [ЛС]
    Показать сообщения:    
    Ответить на тему

    Текущее время: Сегодня, в 10:03

    Часовой пояс: GMT + 2



    Вы не можете начинать темы
    Вы не можете отвечать на сообщения
    Вы не можете редактировать свои сообщения
    Вы не можете удалять свои сообщения
    Вы не можете голосовать в опросах
    Вы не можете прикреплять файлы к сообщениям
    Вы не можете скачивать файлы