BitTorrentTracker PerecTracker.org
BitTorrentTracker PerecTracker.org
    
Регистрация  ·  Вход
 
 · 
Забыли пароль?

  • Sting - A Winter's Night. Live from Durham Cathedral 2009 [2015, Rock/Pop/New wave/Jazz/New-age/Blue-eyed soul/Reggae/Post-punk, HDTV 1080i]

    Ответить на тему
     
    Автор Сообщение

    Columb

    Создавать темы 04-Янв-2015 09:51

           

    [Цитировать]

    Sting - A Winter's Night. Live from Durham Cathedral 2009
    Жанр: Rock/Pop/New wave/Jazz/New-age/Blue-eyed soul/Reggae/Post-punk
    Продолжительность: 01:30:46
    Год выпуска: 2015
    Описание: Выступление британского музыканта, автора и исполнителя, мультиинструменталиста и актера Стинга в кафедральном соборе Дарема в одноименном городе на северо-востоке Англии 2009 sep16
    Доп. информация: Собственная запись со спутникового канала TVP2 2015 jan03
    Треклист:
    Gabriel's Message
    Soul Cake
    There Is No Rose Of Such Virtue
    The Snow It Melts The Soonest
    Christmas At Sea
    Lo How A Rose E'er Blooming
    Cold Song
    The Burning Babe
    Now Winter Comes Slowly
    The Hounds Of Winter
    Balulalow
    Cherry Tree Carol
    Lullaby For An Anxious Child
    The Hurdy-Gurdy Man
    Качество: HDTV 1080i
    Контейнер: TS
    Видео кодек: H.264
    Аудио кодек: AC3
    Видео: Mpeg4 AVC, 1920x1080, 5975 kbps, 25 fps
    Аудио: AC3, 384 kbps, 48 kHz, stereo
    Аудио 2: MP2, 192 kbps, 48 kHz, stereo

    Отчёт MediaInfo / BDInfo

    GeneralID : 1 (0x1)Complete name : D:\Downloads\Sting - A Winter's Night. Live from Durham Cathedral 2009.tsFormat : MPEG-TSFile size : 4.37 GiBDuration : 1h 30mnOverall bit rate mode : VariableOverall bit rate : 6 895 Kbps
    VideoID : 1542 (0x606)Menu ID : 1 (0x1)Format : AVCFormat/Info : Advanced Video CodecFormat profile : High@L4.0Format settings, CABAC : YesFormat settings, ReFrames : 3 framesCodec ID : 27Duration : 1h 30mnBit rate : 5 973 KbpsWidth : 1 920 pixelsHeight : 1 080 pixelsDisplay aspect ratio : 16:9Frame rate : 25.000 fpsStandard : ComponentColor space : YUVChroma subsampling : 4:2:0Bit depth : 8 bitsScan type : InterlacedScan order : Top Field FirstBits/(Pixel*Frame) : 0.115Stream size : 3.79 GiB (87%)Color primaries : BT.709Transfer characteristics : BT.709Matrix coefficients : BT.709Color range : Limited
    Audio #1ID : 1540 (0x604)Menu ID : 1 (0x1)Format : MPEG AudioFormat version : Version 1Format profile : Layer 2Codec ID : 3Duration : 1h 30mnBit rate mode : ConstantBit rate : 192 KbpsChannel(s) : 2 channelsSampling rate : 48.0 KHzCompression mode : LossyStream size : 125 MiB (3%)Language : English
    Audio #2ID : 1541 (0x605)Menu ID : 1 (0x1)Format : AC-3Format/Info : Audio Coding 3Mode extension : CM (complete main)Format settings, Endianness : BigCodec ID : 6Duration : 1h 30mnBit rate mode : ConstantBit rate : 384 KbpsChannel(s) : 2 channelsChannel positions : Front: L RSampling rate : 48.0 KHzBit depth : 16 bitsCompression mode : LossyStream size : 249 MiB (6%)Language : English

    Скриншоты

    Скачать .torrent

    Скачать торрент-файл бесплатно и на максимальной скорости!

    Как скачивать? · Что такое торрент? · Рейтинг и ограничения

    !ВНИМАНИЕ!
    Сайт не распространяет и не хранит электронные версии произведений, а занимается лишь лишь предоставлением доступа к создаваемому пользователями каталогу ссылок на торрент-файлы, которые содержат только списки хеш-сумм, убедительная просьба с жалобами обращаться напрямую к пользователю. Файлы для обмена на трекере предоставлены пользователями сайта, и администрация не несёт ответственности за их содержание. Просьба не заливать файлы, защищенные авторскими правами, а также файлы нелегального содержания!

    [Профиль] [ЛС]
    Показать сообщения:    
    Ответить на тему

    Текущее время: Сегодня, в 11:08

    Часовой пояс: GMT + 2



    Вы не можете начинать темы
    Вы не можете отвечать на сообщения
    Вы не можете редактировать свои сообщения
    Вы не можете удалять свои сообщения
    Вы не можете голосовать в опросах
    Вы не можете прикреплять файлы к сообщениям
    Вы не можете скачивать файлы