Register  ·  Log in
Forgot password?

  • АББА. Даба Ду / ABBA. Dabba Dooo (Леонард Еek/ Leonard Eek) [04/01/2015, Документальный, биография, DVB, т.к. Культура]

    Reply to topic
    Author Message


    Post 03-Jan-2015 23:35



    АББА. Даба Ду / ABBA. Dabba Dooo
    Дата/Год выпуска: 04/01/2015
    Страна: Швеция
    Жанр: Документальный, биография
    Продолжительность: 00:56:28
    Перевод: Одноголосый закадровый
    Русские субтитры: нет
    Режиссер: Леонард Еек / Leonard Eek
    Телеканал: Культура
    Описание: История создания легендарной и суперпопулярной поп-группы "AББA". Интервью с музыкантами, фрагменты композиций, принесших известность группе, исторические справки о каждом из участников - все это послужило основой фильма.
    Раздача группы:
    качество: DVB
    формат: mpg
    Видео: MPEG2, 704х576 (4:3), 2258 Kbps, 25 fps, Bits/(Pixel*Frame) : 0.223
    Аудио: MP2, 128 Kbps, 2 ch, 48 KHz


    G:\Документалистика\АББА Даба Ду.mpg General Complete name : G:\Документалистика\АББА Даба Ду.mpg Format : MPEG-PS File size : 984 MiB Duration : 56mn 28s Overall bit rate mode : Variable Overall bit rate : 2 435 Kbps Video #224 ID : 224 (0xE0) Format : MPEG Video Format version : Version 2 Format profile : Main@Main Format settings, BVOP : Yes Format settings, Matrix : Custom Duration : 56mn 28s Bit rate mode : Variable Bit rate : 2 258 Kbps Maximum bit rate : 15.0 Mbps Width : 704 pixels Height : 576 pixels Display aspect ratio : 4:3 Frame rate : 25.000 fps Standard : PAL Color space : YUV Chroma subsampling : 4:2:0 Bit depth : 8 bits Scan type : Interlaced Scan order : Top Field First Compression mode : Lossy Bits/(Pixel*Frame) : 0.223 Stream size : 912 MiB (93%) Audio #192 ID : 192 (0xC0) Format : MPEG Audio Format version : Version 1 Format profile : Layer 2 Duration : 56mn 28s Bit rate mode : Constant Bit rate : 128 Kbps Channel(s) : 2 channels Sampling rate : 48.0 KHz Compression mode : Lossy Delay relative to video : 12ms Stream size : 51.7 MiB (5%)


    Download .torrent

    Download free and at maximum speed!

    How to Download? · What is a torrent? · Ratings and Limitations

    The site does not extend and does not store electronic(digital) versions of products, and only gives access to a reference catalogue created by users on torrent-files which contain only lists of the hash-sums, the earnest entreaty, with complaints(abuse) to access directly to the user. Files for an exchange on tracker are given by users of a site, and the administration does not bear the responsibility for their maintenance. The request to not fill in the files protected by copyrights, and also files of the illegal maintenance!

    [Profile] [PM]
    Display posts from previous:    
    Reply to topic

    The time now is: Today 22:38

    All times are GMT + 3 Hours

    You cannot post new topics in this forum
    You cannot reply to topics in this forum
    You cannot edit your posts in this forum
    You cannot delete your posts in this forum
    You cannot vote in polls in this forum
    You cannot attach files in this forum
    You cannot download files in this forum