BitTorrentTracker PerecTracker.org
BitTorrentTracker PerecTracker.org
    
Регистрация  ·  Вход
 
 · 
Забыли пароль?

  • АББА. Даба Ду / ABBA. Dabba Dooo (Леонард Еek/ Leonard Eek) [04/01/2015, Документальный, биография, DVB, т.к. Культура]

    Ответить на тему
     
    Автор Сообщение

    Columb

    Создавать темы 03-Янв-2015 22:35

           

    [Цитировать]

    АББА. Даба Ду / ABBA. Dabba Dooo
    Дата/Год выпуска: 04/01/2015
    Страна: Швеция
    Жанр: Документальный, биография
    Продолжительность: 00:56:28
    Перевод: Одноголосый закадровый
    Русские субтитры: нет
    Режиссер: Леонард Еек / Leonard Eek
    Телеканал: Культура
    Описание: История создания легендарной и суперпопулярной поп-группы "AББA". Интервью с музыкантами, фрагменты композиций, принесших известность группе, исторические справки о каждом из участников - все это послужило основой фильма.
    Раздача группы:
    Сэмпл
    качество: DVB
    формат: mpg
    Видео: MPEG2, 704х576 (4:3), 2258 Kbps, 25 fps, Bits/(Pixel*Frame) : 0.223
    Аудио: MP2, 128 Kbps, 2 ch, 48 KHz

    MediaInfo

    G:\Документалистика\АББА Даба Ду.mpg General Complete name : G:\Документалистика\АББА Даба Ду.mpg Format : MPEG-PS File size : 984 MiB Duration : 56mn 28s Overall bit rate mode : Variable Overall bit rate : 2 435 Kbps Video #224 ID : 224 (0xE0) Format : MPEG Video Format version : Version 2 Format profile : Main@Main Format settings, BVOP : Yes Format settings, Matrix : Custom Duration : 56mn 28s Bit rate mode : Variable Bit rate : 2 258 Kbps Maximum bit rate : 15.0 Mbps Width : 704 pixels Height : 576 pixels Display aspect ratio : 4:3 Frame rate : 25.000 fps Standard : PAL Color space : YUV Chroma subsampling : 4:2:0 Bit depth : 8 bits Scan type : Interlaced Scan order : Top Field First Compression mode : Lossy Bits/(Pixel*Frame) : 0.223 Stream size : 912 MiB (93%) Audio #192 ID : 192 (0xC0) Format : MPEG Audio Format version : Version 1 Format profile : Layer 2 Duration : 56mn 28s Bit rate mode : Constant Bit rate : 128 Kbps Channel(s) : 2 channels Sampling rate : 48.0 KHz Compression mode : Lossy Delay relative to video : 12ms Stream size : 51.7 MiB (5%)

    Скриншоты

    Скачать .torrent

    Скачать торрент-файл бесплатно и на максимальной скорости!

    Как скачивать? · Что такое торрент? · Рейтинг и ограничения

    !ВНИМАНИЕ!
    Сайт не распространяет и не хранит электронные версии произведений, а занимается лишь лишь предоставлением доступа к создаваемому пользователями каталогу ссылок на торрент-файлы, которые содержат только списки хеш-сумм, убедительная просьба с жалобами обращаться напрямую к пользователю. Файлы для обмена на трекере предоставлены пользователями сайта, и администрация не несёт ответственности за их содержание. Просьба не заливать файлы, защищенные авторскими правами, а также файлы нелегального содержания!

    [Профиль] [ЛС]
    Показать сообщения:    
    Ответить на тему

    Текущее время: Сегодня, в 23:20

    Часовой пояс: GMT + 2



    Вы не можете начинать темы
    Вы не можете отвечать на сообщения
    Вы не можете редактировать свои сообщения
    Вы не можете удалять свои сообщения
    Вы не можете голосовать в опросах
    Вы не можете прикреплять файлы к сообщениям
    Вы не можете скачивать файлы