BitTorrentTracker PerecTracker.org
BitTorrentTracker PerecTracker.org
    
Регистрация  ·  Вход
 
 · 
Забыли пароль?

  • Звёзды мировой сцены в юбилейном вечере маэстро Игоря Крутого в Кремле (эфир 2015.01.03) [2014, Pop, HDTV 1080i] [Россия HD]

    Ответить на тему
     
    Автор Сообщение

    Columb

    Создавать темы 03-Янв-2015 21:47

           

    [Цитировать]

    Звёзды мировой сцены в юбилейном вечере маэстро Игоря Крутого в Кремле (эфир 2015.01.03)
    Жанр: Pop
    Продолжительность: 02:25:17
    Год выпуска: 2014
    Описание: В грандиозной шоу-программе на самой престижной сцене России в юбилее маэстро выступают звезды мировой сцены и яркие исполнители современности. Поздравить Игоря Крутого с 60-летием придут всемирно известные артисты - Андреа Бочелли, Лара Фабиан, Дмитрий Хворостовский, Суми Чо, Юрий Башмет, Аида Гарифулина. В сопровождении симфонического оркестра под управлением Уильяма Росса они исполнят великолепные песни, написанные специально для них Игорем Крутым.
    Треклист требуется помощь
    Качество: HDTV 1080i
    Контейнер: TS
    Видео кодек: H.264
    Аудио кодек: MP2
    Видео: H264; 1920x1080 (16:9); 25.000 fps; ~7 857 Kbps
    Аудио: MPEG Audio 48000Hz stereo 192 Кбит/сек

    Отчёт MediaInfo / BDInfo

    GeneralID : 1 (0x1)Complete name : Q:\2014-2015 НОВОГОДНИЕ\Концерт Игоря Крутого 2015.01.03.tsFormat : MPEG-TSFile size : 8.13 GiBDuration : 2h 17mnOverall bit rate mode : VariableOverall bit rate : 8 469 Kbps
    VideoID : 2292 (0x8F4)Menu ID : 1 (0x1)Format : AVCFormat/Info : Advanced Video CodecFormat profile : High@L4.0Format settings, CABAC : YesFormat settings, ReFrames : 4 framesCodec ID : 27Duration : 2h 17mnBit rate : 7 857 KbpsWidth : 1 920 pixelsHeight : 1 080 pixelsDisplay aspect ratio : 16:9Frame rate : 25.000 fpsColor space : YUVChroma subsampling : 4:2:0Bit depth : 8 bitsScan type : MBAFFBits/(Pixel*Frame) : 0.152Stream size : 7.54 GiB (93%)
    AudioID : 2295 (0x8F7)Menu ID : 1 (0x1)Format : MPEG AudioFormat version : Version 1Format profile : Layer 2Mode : Joint stereoMode extension : Intensity Stereo + MS StereoCodec ID : 3Duration : 2h 17mnBit rate mode : ConstantBit rate : 192 KbpsChannel(s) : 2 channelsSampling rate : 48.0 KHzCompression mode : LossyStream size : 189 MiB (2%)Language : English

    Скриншоты




    Скачать .torrent

    Скачать торрент-файл бесплатно и на максимальной скорости!

    Как скачивать? · Что такое торрент? · Рейтинг и ограничения

    !ВНИМАНИЕ!
    Сайт не распространяет и не хранит электронные версии произведений, а занимается лишь лишь предоставлением доступа к создаваемому пользователями каталогу ссылок на торрент-файлы, которые содержат только списки хеш-сумм, убедительная просьба с жалобами обращаться напрямую к пользователю. Файлы для обмена на трекере предоставлены пользователями сайта, и администрация не несёт ответственности за их содержание. Просьба не заливать файлы, защищенные авторскими правами, а также файлы нелегального содержания!

    [Профиль] [ЛС]
    Показать сообщения:    
    Ответить на тему

    Текущее время: Сегодня, в 18:16

    Часовой пояс: GMT + 2



    Вы не можете начинать темы
    Вы не можете отвечать на сообщения
    Вы не можете редактировать свои сообщения
    Вы не можете удалять свои сообщения
    Вы не можете голосовать в опросах
    Вы не можете прикреплять файлы к сообщениям
    Вы не можете скачивать файлы