BitTorrentTracker PerecTracker.org
BitTorrentTracker PerecTracker.org
    
Регистрация  ·  Вход
 
 · 
Забыли пароль?

  • Billy Joel • Library Of Congress Gershwin Prize For Popular Song 2014 [2015, Rock, HDTV 1080i]

    Ответить на тему
     
    Автор Сообщение

    Columb

    Создавать темы 03-Янв-2015 16:10

           

    [Цитировать]

    Billy Joel
    Library Of Congress Gershwin Prize For Popular Song 2014



    Жанр: Rock
    Продолжительность: 00:18:55+00:10:12+00:38:50
    Запись: November 19, 2014
    Трансляция: January 2, 2015 on PBS-TV
    Качество: HDTV 1080i
    Контейнер: TS
    Видео кодек: MPEG2
    Аудио кодек: AC3
    Видео: MPEG2 Video 1920x1080 29.97fps 7857Kbps
    Аудио: Dolby AC3 48000Hz stereo 384kbps

    Треклист

    Music director - Tommy Byrnes
    House band:
    Tommy Byrnes - guitar, vocals
    Andy Cichon - bass, vocals
    Carl Fischer - trumpet, saxophone
    Dave Rosenthal - keyboards
    Chuck Burgi - drums
    Mike Delguidice - guitar, vocals
    Mark Rivera - saxophone, vocals
    Crystal Taliefero - percussion, saxophone, vocals
    Featured performers:
    Billy Joel
    Tony Bennett
    Boyz II Men
    Gavin DeGraw
    Josh Groban
    Natalie Maines
    John Mellencamp
    LeAnn Rimes
    Kevin Spacey
    Michael Feinstein
    Natalie Maines' musicians:
    Andrew Michael Hall
    Keith Sewell
    Josh Groban's string quartet:
    Andrea Levine
    Gina Corso
    Will Hakim
    Lauren Weaver
    Часть первая [00:18:55]
    01 intro
    02 talk - Kevin Spacey
    03 The Longest Time* - Boyz II Men
    04 Lullabye (Goodnight, My Angel) - LeAnn Rimes
    05 It's Still Rock And Roll To Me - Gavin DeGraw
    06 She's Always A Woman - Josh Groban with Sharon Isbin (guitar) and string quartet
    Часть вторая [00:10:12]
    07 Rhapsody In Blue/talk - Michael Feinstein
    08 She's Got A Way - Natalie Maines
    09 Allentown- John Mellencamp
    10 talk - Paul McCartney (recipient of the Gershwin Prize in 2010)
    Часть третья [00:38:50]
    11 New York State Of Mind - Tony Bennett
    12 Billy Joel bio - video
    13 intro Gershwin Prize presenters
    14 award presentator - U.S. Supreme Court Justice Sonia Sotomayor
    15 acceptance speech* - Billy Joel
    16 Movin' Out (Anthony's Song) - Billy Joel
    17 Vienna - Billy Joel
    18 Miami 2017* (Seen The Lights Go Out On Broadway) - Billy Joel
    19 You May Be Right - Billy Joel
    20 Piano Man* - All, including Kevin Spacey on harmonica and vocals!
    *contains a single digital glitch, about 10-15 seconds of footage are missing

    Отчёт MediaInfo / BDInfo

    GeneralID : 1 (0x1)Complete name : L:\Billy Joel - The Library Of Congress Gershwin Prize 2014\03 Часть третья.tsFormat : MPEG-TSFile size : 2.35 GiBDuration : 38mn 50sOverall bit rate mode : VariableOverall bit rate : 8 673 KbpsLaw rating : TV-PG
    VideoID : 288 (0x120)Menu ID : 1 (0x1)Format : MPEG VideoFormat version : Version 2Format profile : Main@HighFormat settings, BVOP : YesFormat settings, Matrix : DefaultFormat settings, GOP : VariableFormat settings, picture struc : FrameCodec ID : 2Duration : 38mn 49sBit rate mode : VariableBit rate : 7 857 KbpsMaximum bit rate : 80.0 MbpsWidth : 1 920 pixelsHeight : 1 080 pixelsDisplay aspect ratio : 16:9Active Format Description : Full frame 16:9 imageFrame rate : 29.970 fpsColor space : YUVChroma subsampling : 4:2:0Bit depth : 8 bitsScan type : InterlacedScan order : Bottom Field FirstCompression mode : LossyBits/(Pixel*Frame) : 0.126Time code of first frame : 00:00:00;00Time code source : Group of pictures headerStream size : 2.13 GiB (91%)Color primaries : BT.709Transfer characteristics : BT.709Matrix coefficients : BT.709
    AudioID : 289 (0x121)Menu ID : 1 (0x1)Format : AC-3Format/Info : Audio Coding 3Mode extension : CM (complete main)Format settings, Endianness : BigCodec ID : 129Duration : 38mn 49sBit rate mode : ConstantBit rate : 384 KbpsChannel(s) : 2 channelsChannel positions : Front: L RSampling rate : 48.0 KHzBit depth : 16 bitsCompression mode : LossyDelay relative to video : 18msStream size : 107 MiB (4%)Language : English
    ----------------------------------------------------------------------------
    GeneralID : 1 (0x1)Complete name : L:\Billy Joel - The Library Of Congress Gershwin Prize 2014\02 Часть вторая.tsFormat : MPEG-TSFile size : 618 MiBDuration : 10mn 12sOverall bit rate mode : VariableOverall bit rate : 8 460 KbpsLaw rating : TV-PG
    VideoID : 288 (0x120)Menu ID : 1 (0x1)Format : MPEG VideoFormat version : Version 2Format profile : Main@HighFormat settings, BVOP : YesFormat settings, Matrix : DefaultFormat settings, GOP : VariableFormat settings, picture struc : FrameCodec ID : 2Duration : 10mn 12sBit rate mode : VariableBit rate : 7 654 KbpsMaximum bit rate : 80.0 MbpsWidth : 1 920 pixelsHeight : 1 080 pixelsDisplay aspect ratio : 16:9Active Format Description : Full frame 16:9 imageFrame rate : 29.970 fpsColor space : YUVChroma subsampling : 4:2:0Bit depth : 8 bitsScan type : InterlacedScan order : Bottom Field FirstCompression mode : LossyBits/(Pixel*Frame) : 0.123Time code of first frame : 00:00:00;00Time code source : Group of pictures headerStream size : 558 MiB (90%)Color primaries : BT.709Transfer characteristics : BT.709Matrix coefficients : BT.709
    AudioID : 289 (0x121)Menu ID : 1 (0x1)Format : AC-3Format/Info : Audio Coding 3Mode extension : CM (complete main)Format settings, Endianness : BigCodec ID : 129Duration : 10mn 12sBit rate mode : ConstantBit rate : 384 KbpsChannel(s) : 2 channelsChannel positions : Front: L RSampling rate : 48.0 KHzBit depth : 16 bitsCompression mode : LossyDelay relative to video : 4msStream size : 28.0 MiB (5%)Language : English
    ---------------------------------------------------------------------
    GeneralID : 1 (0x1)Complete name : L:\Billy Joel - The Library Of Congress Gershwin Prize 2014\01 Часть первая.tsFormat : MPEG-TSFile size : 1.14 GiBDuration : 18mn 55sOverall bit rate mode : VariableOverall bit rate : 8 609 KbpsLaw rating : TV-PG
    VideoID : 288 (0x120)Menu ID : 1 (0x1)Format : MPEG VideoFormat version : Version 2Format profile : Main@HighFormat settings, BVOP : YesFormat settings, Matrix : CustomFormat settings, GOP : VariableFormat settings, picture struc : FrameCodec ID : 2Duration : 18mn 55sBit rate mode : VariableBit rate : 7 796 KbpsMaximum bit rate : 80.0 MbpsWidth : 1 920 pixelsHeight : 1 080 pixelsDisplay aspect ratio : 16:9Active Format Description : Full frame 16:9 imageFrame rate : 29.970 fpsColor space : YUVChroma subsampling : 4:2:0Bit depth : 8 bitsScan type : InterlacedScan order : Bottom Field FirstCompression mode : LossyBits/(Pixel*Frame) : 0.125Time code of first frame : 00:00:00;00Time code source : Group of pictures headerStream size : 1.03 GiB (91%)Color primaries : BT.709Transfer characteristics : BT.709Matrix coefficients : BT.709
    AudioID : 289 (0x121)Menu ID : 1 (0x1)Format : AC-3Format/Info : Audio Coding 3Mode extension : CM (complete main)Format settings, Endianness : BigCodec ID : 129Duration : 18mn 55sBit rate mode : ConstantBit rate : 384 KbpsChannel(s) : 2 channelsChannel positions : Front: L RSampling rate : 48.0 KHzBit depth : 16 bitsCompression mode : LossyDelay relative to video : 32msStream size : 52.0 MiB (4%)Language : English

    Скриншоты


    Скачать .torrent

    Скачать торрент-файл бесплатно и на максимальной скорости!

    Как скачивать? · Что такое торрент? · Рейтинг и ограничения

    !ВНИМАНИЕ!
    Сайт не распространяет и не хранит электронные версии произведений, а занимается лишь лишь предоставлением доступа к создаваемому пользователями каталогу ссылок на торрент-файлы, которые содержат только списки хеш-сумм, убедительная просьба с жалобами обращаться напрямую к пользователю. Файлы для обмена на трекере предоставлены пользователями сайта, и администрация не несёт ответственности за их содержание. Просьба не заливать файлы, защищенные авторскими правами, а также файлы нелегального содержания!

    [Профиль] [ЛС]
    Показать сообщения:    
    Ответить на тему

    Текущее время: Сегодня, в 16:34

    Часовой пояс: GMT + 2



    Вы не можете начинать темы
    Вы не можете отвечать на сообщения
    Вы не можете редактировать свои сообщения
    Вы не можете удалять свои сообщения
    Вы не можете голосовать в опросах
    Вы не можете прикреплять файлы к сообщениям
    Вы не можете скачивать файлы