BitTorrentTracker PerecTracker.org
BitTorrentTracker PerecTracker.org
    
Регистрация  ·  Вход
 
 · 
Забыли пароль?

  • Dick Clark's Primetime New Year's Rockin' Eve (Part two) [2015, Pop Show, HDTV 720p]

    Ответить на тему
     
    Автор Сообщение

    Columb

    Создавать темы 03-Янв-2015 12:02

           

    [Цитировать]

    Dick Clark's Primetime New Year's Rockin' Eve
    (Part two)



    Жанр: Pop Show
    Продолжительность: 00:38:35
    Год выпуска: 2015
    Качество: HDTV 720p
    Контейнер: MKV
    Видео кодек: H.264
    Аудио кодек: AC3
    Видео: MPEG4 Video (H264) 1280x720 29.97fps 4328Kbps
    Аудио: Dolby AC3 48000Hz 6ch 384kbps

    Отчёт MediaInfo / BDInfo

    GeneralUnique ID : 173137998257827699338609119887953575822 (0x82412A608A8AF469B39F31F4F7013F8E)Complete name : L:\Dick Clark's Primetime New Year's Rockin' Eve 2015 (Part two).mkvFormat : MatroskaFormat version : Version 2File size : 1.30 GiBDuration : 38mn 35sOverall bit rate : 4 808 KbpsEncoded date : UTC 2015-01-01 08:10:28Writing application : mkvmerge v5.7.0 ('The Whirlwind') built on Jul 8 2012 20:08:51Writing library : libebml v1.2.3 + libmatroska v1.3.0
    VideoID : 2Format : AVCFormat/Info : Advanced Video CodecFormat profile : High@L4.1Format settings, CABAC : YesFormat settings, ReFrames : 5 framesCodec ID : V_MPEG4/ISO/AVCDuration : 38mn 35sBit rate : 4 328 KbpsWidth : 1 280 pixelsHeight : 720 pixelsDisplay aspect ratio : 16:9Frame rate mode : ConstantFrame rate : 29.970 fpsColor space : YUVChroma subsampling : 4:2:0Bit depth : 8 bitsScan type : ProgressiveBits/(Pixel*Frame) : 0.157Stream size : 1.17 GiB (90%)Writing library : x264 core 142 r2491 24e4fedEncoding settings : cabac=1 / ref=5 / deblock=1:0:0 / analyse=0x3:0x113 /me=umh / subme=8 / psy=1 / psy_rd=1.00:0.00 / mixed_ref=1 / me_range=16 / chroma_me=1 / trellis=1 / 8x8dct=1 / cqm=0 / deadzone=21,11 / fast_pskip=1 / chroma_qp_offset=-2 / threads=12 / lookahead_threads=2 / sliced_threads=0 / nr=0 / decimate=1 / interlaced=0 / bluray_compat=0 / constrained_intra=0 / bframes=3 / b_pyramid=2 / b_adapt=2 / b_bias=0 / direct=3 / weightb=1 / open_gop=0 / weightp=2 / keyint=250 / keyint_min=25 / scenecut=40 / intra_refresh=0 / rc_lookahead=50 / rc=crf / mbtree=1 / crf=23.0 / qcomp=0.60 / qpmin=0 / qpmax=69 / qpstep=4 / ip_ratio=1.40 / aq=1:1.00Language : EnglishDefault : YesForced : NoMatrix coefficients : BT.709
    AudioID : 1Format : AC-3Format/Info : Audio Coding 3Mode extension : CM (complete main)Format settings, Endianness : BigCodec ID : A_AC3Duration : 38mn 35sBit rate mode : ConstantBit rate : 384 KbpsChannel(s) : 6 channelsChannel positions : Front: L C R, Side: L R, LFESampling rate : 48.0 KHzBit depth : 16 bitsCompression mode : LossyStream size : 106 MiB (8%)Default : YesForced : No

    Скриншоты



    Скачать .torrent

    Скачать торрент-файл бесплатно и на максимальной скорости!

    Как скачивать? · Что такое торрент? · Рейтинг и ограничения

    !ВНИМАНИЕ!
    Сайт не распространяет и не хранит электронные версии произведений, а занимается лишь лишь предоставлением доступа к создаваемому пользователями каталогу ссылок на торрент-файлы, которые содержат только списки хеш-сумм, убедительная просьба с жалобами обращаться напрямую к пользователю. Файлы для обмена на трекере предоставлены пользователями сайта, и администрация не несёт ответственности за их содержание. Просьба не заливать файлы, защищенные авторскими правами, а также файлы нелегального содержания!

    [Профиль] [ЛС]
    Показать сообщения:    
    Ответить на тему

    Текущее время: Сегодня, в 09:10

    Часовой пояс: GMT + 2



    Вы не можете начинать темы
    Вы не можете отвечать на сообщения
    Вы не можете редактировать свои сообщения
    Вы не можете удалять свои сообщения
    Вы не можете голосовать в опросах
    Вы не можете прикреплять файлы к сообщениям
    Вы не можете скачивать файлы