Register  ·  Log in
Forgot password?

  • Bryan Adams • In Concert Toronto [2015, Rock, HDTV 720p]

    Reply to topic
    Author Message


    Post 03-Jan-2015 11:32



    Bryan Adams
    In Concert Toronto 2014

    Жанр: Rock
    Продолжительность: 00:58:16
    Год выпуска: 2015
    Качество: HDTV 720p
    Контейнер: TS
    Видео кодек: H.264
    Аудио кодек: AC3
    Видео: MPEG4 Video (H264) 1280x720 50fps 12.2 Mbps
    Аудио: Dolby AC3 48000Hz stereo 448kbps


    Run To You
    God Only Loves
    The Only Thing That Looks Good On Me Is You
    (Everything I Do) I Do It for You
    Cuts Like A Knife
    She Knows Me
    When You're Gone
    Summer of '69
    18 Til I Die
    It's Only Love
    Straight From The Heart
    All For Love

    Отчёт MediaInfo / BDInfo

    GeneralID : 1 (0x1)Complete name : L:\Bryan Adams - In Concert Toronto 2014 HDTV.tsFormat : MPEG-TSFile size : 5.42 GiBDuration : 58mn 16sOverall bit rate mode : VariableOverall bit rate : 13.3 Mbps
    VideoID : 6510 (0x196E)Menu ID : 1 (0x1)Format : AVCFormat/Info : Advanced Video CodecFormat profile : High@L4.0Format settings, CABAC : YesFormat settings, ReFrames : 6 framesCodec ID : 27Duration : 58mn 16sBit rate : 12.2 MbpsWidth : 1 280 pixelsHeight : 720 pixelsDisplay aspect ratio : 16:9Frame rate : 50.000 fpsColor space : YUVChroma subsampling : 4:2:0Bit depth : 8 bitsScan type : ProgressiveBits/(Pixel*Frame) : 0.265Stream size : 4.97 GiB (92%)Color primaries : BT.709Transfer characteristics : BT.709Matrix coefficients : BT.709
    AudioID : 6522 (0x197A)Menu ID : 1 (0x1)Format : AC-3Format/Info : Audio Coding 3Mode extension : CM (complete main)Format settings, Endianness : BigCodec ID : 6Duration : 58mn 16sBit rate mode : ConstantBit rate : 448 KbpsChannel(s) : 2 channelsChannel positions : Front: L RSampling rate : 48.0 KHzBit depth : 16 bitsCompression mode : LossyStream size : 187 MiB (3%)Language : German


    Download .torrent

    Download free and at maximum speed!

    How to Download? · What is a torrent? · Ratings and Limitations

    The site does not extend and does not store electronic(digital) versions of products, and only gives access to a reference catalogue created by users on torrent-files which contain only lists of the hash-sums, the earnest entreaty, with complaints(abuse) to access directly to the user. Files for an exchange on tracker are given by users of a site, and the administration does not bear the responsibility for their maintenance. The request to not fill in the files protected by copyrights, and also files of the illegal maintenance!

    [Profile] [PM]
    Display posts from previous:    
    Reply to topic

    The time now is: Today 14:22

    All times are GMT + 3 Hours

    You cannot post new topics in this forum
    You cannot reply to topics in this forum
    You cannot edit your posts in this forum
    You cannot delete your posts in this forum
    You cannot vote in polls in this forum
    You cannot attach files in this forum
    You cannot download files in this forum