BitTorrentTracker PerecTracker.org
BitTorrentTracker PerecTracker.org
    
Регистрация  ·  Вход
 
 · 
Забыли пароль?

  • Новогодний концерт Венского филармонического оркестра - 2015 (Мишель Бейер, Зубин Мета) / Neujahrskonzert der Wiener Philharmoniker 2015 [2015, Classic music, HDTVRip 720p, RUS]

    Ответить на тему
     
    Автор Сообщение

    Columb

    Создавать темы 02-Янв-2015 16:52

           

    [Цитировать]

    Новогодний концерт Венского филармонического оркестра - 2015 / Neujahrskonzert der Wiener Philharmoniker 2015
    Год выпуска: 2015
    Лейбл: ORF, ТК «Культура»
    Страна-производитель: Австрия
    Жанр: Classic music
    Продолжительность: 02:21:58
    Язык: Русский, немецкий
    Перевод: Закадровый (Андрей Пряхин)
    Режиссер: Michele Beyer (Мишель Бейер)
    Дирижер: Zubin Mehta (Зубин Мета)
    Исполнители: Wiener Philharmoniker (Венский филармонический оркестр)
    Треклист:
    1-е отделение
    01. Franz von Suppé - Ouvertüre zum Lustspiel “Ein Morgen, ein Mittag, ein Abend in Wien”
    02. Johann Strauß Sohn - Märchen aus dem Orient. Walzer, op. 444
    03. Josef Strauß - Wiener Leben. Polka française, op. 218
    04. Eduard Strauß - Wo man lacht und lebt. Polka schnell, op. 108
    05. Josef Strauß - Dorfschwalben aus Österreich. Walzer, op. 164
    06. Johann Strauß Sohn - Vom Donaustrande. Polka schnell, op. 356
    Антракт
    - Johann Strauß Sohn
    - Perpetuum mobile. Musikalischer Scherz, op. 257
    - Accelerationen. Walzer, op. 234
    - Electro-magnetische Polka, op. 110
    2-е отделение
    07. Eduard Strauß - Mit Dampf. Polka schnell, op. 70
    08. Johann Strauß Sohn - An der Elbe. Walzer, op. 477
    09. Hans Christian Lumbye - Champagner-Galopp, op. 14
    10. Johann Strauß Sohn - Studenten-Polka. Polka française, op. 263
    11. Johann Strauß Vater - Freiheits-Marsch, op. 226
    12. Johann Strauß Sohn - Annen-Polka, op. 137
    13. Johann Strauß Sohn - Wein, Weib und Gesang. Walzer, op. 333
    14. Eduard Strauß - Mit Chic. Polka schnell, op. 221
    15. Johann Strauß Sohn - Explosions-Polka. Polka schnell
    16. Johann Strauß - An der schönen blauen Donau, op. 314
    17. Johann Strauß Vater - Radetzky-Marsch, op. 228
    Описание: Мировая премьера. Новогодний концерт Венского филармонического оркестра
    Новогодний концерт Венского филармонического оркестра (1 января 2015).
    В прямой трансляции из Золотого зала Общества друзей музыки в Вене - знаменитого Musikverein - будет звучать музыка семейства Штраусов.
    Доп. информация: Am 1. Januar 2015 wird Zubin Mehta zum fünften Mal nach 1990, 1995, 1998 und 2007 den ehrenvollen Platz am Dirigentenpult einnehmen. Der 78-jährige Maestro zählt damit zu den Dirigenten, die das traditionsreiche Konzert mit am häufigsten geleitet und in besonderer Weise geprägt haben. Mit der erneuten Einladung würdigt das Orchester nicht nur einen führenden Dirigenten unserer Zeit, sondern auch den großen Humanisten Zubin Mehta.
    Das ZDF ist ab 11.15 Uhr wieder live dabei, wenn die Wiener Philharmoniker ihren Neujahrsgruß im voll besetzten Goldenen Saal des Wiener Musikvereins anstimmen und ihre musikalische Botschaft von Hoffnung, Frieden und Freundschaft in die Welt entsenden. Auf dem Programm der Strauß-Hommage, die inzwischen in mehr als 90 Länder übertragen wird, stehen 2015 neben zahlreichen Werken von Johann Strauß Vater und Sohn, von Eduard und Josef Strauß, auch Werke von Franz von Suppé und Hans Christian Lumbye. Davon werden fünf Werke erstmals im Rahmen des Neujahrskonzerts gespielt, aber natürlich dürfen sich die Zuschauer auch wieder auf die Klassiker "An der schönen blauen Donau" und "Radetzkymarsch" freuen.
    Das Wiener Staatsballett tanzt nach einer Choreografie von Davide Bombana in der Wiener Universität, die 2015 ihr 650. Jubiläum feiert. Die Kostüme wurden von jungen Wiener Designern entworfen.
    Der Pausenfilm führt diesmal über den Wiener Ring und gewährt Einblicke in die Museen, Theater und prunkvollen Palais entlang der Prachtmeile im historischen Zentrum der Stadt.
    Качество видео: HDTVRip
    Формат/Контейнер: MKV
    Видео кодек: MPEG2
    Аудио кодек: AC3, MP2
    Видео поток: MPEG-2 Video, 1280x720, 14977 kbps, 50 fps
    Аудио поток: Русский - AC3, 192 kbps, 48 kHz, 2 ch. Немецкий - MP2, 384 kbps, 48 kHz, 2 ch

    Медиаинфо

    Полное имя : V:\Torrent_3\Novogodnij.koncert.venskogo.filarmonicheskogo.orkestra.2015.HDTVRip.mkv
    Формат : Matroska
    Версия формата : Version 4 / Version 2
    Размер файла : 15,4 Гбайт
    Продолжительность : 2 ч. 21 м.
    Режим общего битрейта : Переменный
    Общий поток : 15,6 Мбит/сек
    Дата кодирования : UTC 2015-01-02 12:50:43
    Программа кодирования : mkvmerge v7.3.0 ('Nouages') 64bit built on Oct 22 2014 18:53:34
    Библиотека кодирования : libebml v1.3.0 + libmatroska v1.4.1
    DURATION : 02:21:57.728000000
    NUMBER_OF_FRAMES : 266179
    NUMBER_OF_BYTES : 204425472
    _STATISTICS_WRITING_APP : mkvmerge v7.3.0 ('Nouages') 64bit built on Oct 22 2014 18:53:34
    _STATISTICS_WRITING_DATE_UTC : 2015-01-02 12:50:43
    _STATISTICS_TAGS : BPS DURATION NUMBER_OF_FRAMES NUMBER_OF_BYTES
    Видео
    Идентификатор : 1
    Формат : MPEG Video
    Коммерческое название : HDV 720p
    Версия формата : Version 2
    Профиль формата : Main@High
    Параметр BVOP формата : Нет
    Параметр матрицы формата : По умолчанию
    Идентификатор кодека : V_MPEG2
    Идентификатор кодека/Информация : MPEG 1 or 2 Video
    Продолжительность : 2 ч. 21 м.
    Вид битрейта : Переменный
    Битрейт : 14,7 Мбит/сек
    Максимальный битрейт : 18,5 Мбит/сек
    Ширина : 1280 пикселей
    Высота : 720 пикселей
    Соотношение сторон : 16:9
    Режим частоты кадров : Постоянный
    Частота кадров : 50,000 кадров/сек
    Цветовое пространство : YUV
    Субдискретизация насыщенности : 4:2:0
    Битовая глубина : 8 бит
    Тип развёртки : Прогрессивная
    Метод сжатия : С потерями
    Бит/(Пиксели*Кадры) : 0.318
    Временной код первого кадра : 00:00:00:00
    Оригинал временного кода : Group of pictures header
    Размер потока : 14,5 Гбайт (94%)
    Default : Да
    Forced : Нет
    Аудио #1
    Идентификатор : 2
    Формат : MPEG Audio
    Версия формата : Version 1
    Профиль формата : Layer 2
    Идентификатор кодека : A_MPEG/L2
    Идентификатор кодека/Подсказка : MP2
    Продолжительность : 2 ч. 21 м.
    Вид битрейта : Постоянный
    Битрейт : 384 Кбит/сек
    Каналы : 2 канала
    Частота : 48,0 КГц
    Метод сжатия : С потерями
    Задержка видео : -40 мс.
    Размер потока : 390 Мбайт (2%)
    Default : Да
    Forced : Нет
    Аудио #2
    Идентификатор : 3
    Формат : AC-3
    Формат/Информация : Audio Coding 3
    Расширение режима : CM (complete main)
    Параметр Endianness формата : Big
    Идентификатор кодека : A_AC3
    Продолжительность : 2 ч. 21 м.
    Вид битрейта : Постоянный
    Битрейт : 192 Кбит/сек
    Каналы : 2 канала
    Расположение каналов : Front: L R
    Частота : 48,0 КГц
    Битовая глубина : 16 бит
    Метод сжатия : С потерями
    Задержка видео : -40 мс.
    Размер потока : 195 Мбайт (1%)
    Default : Нет
    Forced : Нет

    Скриншоты


    Скачать .torrent

    Скачать торрент-файл бесплатно и на максимальной скорости!

    Как скачивать? · Что такое торрент? · Рейтинг и ограничения

    !ВНИМАНИЕ!
    Сайт не распространяет и не хранит электронные версии произведений, а занимается лишь лишь предоставлением доступа к создаваемому пользователями каталогу ссылок на торрент-файлы, которые содержат только списки хеш-сумм, убедительная просьба с жалобами обращаться напрямую к пользователю. Файлы для обмена на трекере предоставлены пользователями сайта, и администрация не несёт ответственности за их содержание. Просьба не заливать файлы, защищенные авторскими правами, а также файлы нелегального содержания!

    [Профиль] [ЛС]
    Показать сообщения:    
    Ответить на тему

    Текущее время: Сегодня, в 04:07

    Часовой пояс: GMT + 2



    Вы не можете начинать темы
    Вы не можете отвечать на сообщения
    Вы не можете редактировать свои сообщения
    Вы не можете удалять свои сообщения
    Вы не можете голосовать в опросах
    Вы не можете прикреплять файлы к сообщениям
    Вы не можете скачивать файлы