BitTorrentTracker PerecTracker.org
BitTorrentTracker PerecTracker.org
    
Регистрация  ·  Вход
 
 · 
Забыли пароль?

  • ТСН / Телевізійна Служба Новин / Выпуски за январь (+7 января) 2015 года [2015 г., Информация, публицистика, репортаж, IPTVRip]

    Ответить на тему
     
    Автор Сообщение

    Columb

    Создавать темы 02-Янв-2015 15:16

           

    [Цитировать]

    ТСН / Телевізійна Служба Новин
    за январь 2015 года
    -7 января в 22:04 добавлен выпуск за 7 января,
    перекачайте торрент-файл, пожалуйста
    ---
    Следующий выпуск - 8 января-Год выпуска: 2015
    Страна: Украина
    Жанр: Информационная программа
    Ведущие: Алла Мазур, Наталья Мосейчук и Лидия Таран
    Язык: Украинский, русский
    -Описание:
    Основной выпуск «ТСН» - это актуальные и оперативные новости о событиях в Украине и мире.
    Вас ждут только важные и интересные факты.
    Выход в эфир: на "1+1" с понедельника по субботу, в 19.30.
    ---
    «ТСН. Тиждень» - это актуальные комментарии и гости студии, обзор главных событий в стране и мире за прошлую неделю, острые вопросы к главным действующим лицам, мнение авторитетных экспертов и аналитические прогнозы.
    Выход в эфир: на "1+1" в воскресенье, в 19.30.-

    Содержание релиза

    01. Выпуск за 1 января:
    Как отметили начало нового 2015 года в Украине и за ее пределами, удалось ли боевикам испортить новогоднюю ночь украинским военным на Донбассе, что происходило в рамках празднования дня рождения Бандеры в разных городах Украины и другое...
    Продолжительность: 00:39:02
    - - - - -
    02. Выпуск за 2 января:
    Еще четверых пленных удалось освободить из сепаратистского плена, на юге Украины борются со снежными заносами, боевика Бэтмена застрелили на Луганщине и другое...
    Продолжительность: 00:37:02
    - - - - -
    03. Выпуск за 3 января:
    Новые задачи для антикоррупционного бюро от Петра Порошенко, новогодние каникулы для детей из восточных регионов Украины в Италии и на Прикарпатье, самый большой в Украине рождественский вертеп и другое...
    Продолжительность: 00:46:09
    - - - - -
    04. Выпуск за 4 января:
    Боевики убивают друг друга в междоусобицах, Россия закрывает крымские пункты обмена валют, чиновников областного и районного уровней после праздников ждет люстрация и другое...
    Продолжительность: 00:45:46
    - - - - -
    05. Выпуск за 5 января:
    Плен украинских военных, взрыв в Одессе, подготовка к встрече президентов Украины, России, Германии и Франции, новая техника для украинского войска, морозы на Рождество и другое...
    Продолжительность: 00:46:10
    - - - - -
    06. Выпуск за 6 января:
    Украинские бойцы погибли по дороге на передовую в ДТП, волонтеры устроили настоящий сочельник для бездомных и военных, школьники из Донбасса познакомились с воинами УПА и другое...
    Продолжительность: 00:45:14
    - - - - -
    07. Выпуск за 7 января:
    Празднование Рождества в городах Украины и на передовой, праздник для бедных в Киеве, жестокий расстрел людей в Париже, роженица-подросток в Винницкой области и другое...
    Продолжительность: 00:44:30
    -Качество: IPTVRip
    Формат: AVI
    Видео кодек: XviD _ Аудио кодек: MP3
    Видео: 704x528 (4:3), 25 fps, XviD build 50, 1 803 kbps avg, 0.194 bit/pixel
    Аудио: 44.1 kHz, MPEG Layer 3, 2 ch, 192.00 kbps
    -

    M.I.

    General
    Complete name               : G:\_NEW\TSN_1+1.(2014_07)\Tsn 1+1 (01.07.2014) IPTVRip.avi
    Format                      : AVI
    Format/Info                 : Audio Video Interleave
    File size                   : 910 MiB
    Duration                    : 1h 3mn
    Overall bit rate            : 2 007 Kbps
    Writing application         : MEncoder 1.0rc2-4.2.4
    Writing library             : MPlayer
    Video
    ID                          : 0
    Format                      : MPEG-4 Visual
    Format profile              : Simple@L1
    Format settings, BVOP       : No
    Format settings, QPel       : No
    Format settings, GMC        : No warppoints
    Format settings, Matrix     : Default (H.263)
    Codec ID                    : XVID
    Codec ID/Hint               : XviD
    Duration                    : 1h 3mn
    Bit rate                    : 1 803 Kbps
    Width                       : 704 pixels
    Height                      : 528 pixels
    Display aspect ratio        : 4:3
    Frame rate                  : 25.000 fps
    Color space                 : YUV
    Chroma subsampling          : 4:2:0
    Bit depth                   : 8 bits
    Scan type                   : Progressive
    Compression mode            : Lossy
    Bits/(Pixel*Frame)          : 0.194
    Stream size                 : 817 MiB (90%)
    Writing library             : Lavc51.44.0
    Audio
    ID                          : 1
    Format                      : MPEG Audio
    Format version              : Version 1
    Format profile              : Layer 3
    Codec ID                    : 55
    Codec ID/Hint               : MP3
    Duration                    : 1h 3mn
    Bit rate mode               : Constant
    Bit rate                    : 192 Kbps
    Channel(s)                  : 2 channels
    Sampling rate               : 44.1 KHz
    Compression mode            : Lossy
    Stream size                 : 87.1 MiB (10%)
    Alignment                   : Aligned on interleaves
    Interleave, duration        : 26 ms (0.65 video frame)
    Interleave, preload duration: 522 ms

    Скриншоты


    -

    Внимание! Раздача ведётся путём добавления новых выпусков

    При каждом добавлении создаётся новый торрент. Чтобы начать докачку нового выпуска, пользователям необходимо сделать следующее:
    ● остановить скачивание;
    ● удалить старый торрент у себя из клиента (старые выпуски удалять не надо);
    ● скачать новый торрент и запустить его у себя в клиенте вместо старого, при этом указать клиенту путь в старую папку куда и должно происходить скачивание новых выпусков;
    ● ваш клиент при запуске должен произвести хеширование (проверку) старой папки (если не производит сам - помогите ему сделать это), и будет докачивать только те выпуски, которых у вас ещё нет. Старые выпуски при этом не удаляются, а продолжают раздаваться!
    ● Eсли вы уже удалили старые выпуски, то предотвратить повторную закачку старых выпусков можно, отжав галочку в соответсвующих местах при запуске нового торрента.
    Скачать .torrent

    Скачать торрент-файл бесплатно и на максимальной скорости!

    Как скачивать? · Что такое торрент? · Рейтинг и ограничения

    !ВНИМАНИЕ!
    Сайт не распространяет и не хранит электронные версии произведений, а занимается лишь лишь предоставлением доступа к создаваемому пользователями каталогу ссылок на торрент-файлы, которые содержат только списки хеш-сумм, убедительная просьба с жалобами обращаться напрямую к пользователю. Файлы для обмена на трекере предоставлены пользователями сайта, и администрация не несёт ответственности за их содержание. Просьба не заливать файлы, защищенные авторскими правами, а также файлы нелегального содержания!

    [Профиль] [ЛС]
    Показать сообщения:    
    Ответить на тему

    Текущее время: Сегодня, в 08:56

    Часовой пояс: GMT + 2



    Вы не можете начинать темы
    Вы не можете отвечать на сообщения
    Вы не можете редактировать свои сообщения
    Вы не можете удалять свои сообщения
    Вы не можете голосовать в опросах
    Вы не можете прикреплять файлы к сообщениям
    Вы не можете скачивать файлы