BitTorrentTracker PerecTracker.org
BitTorrentTracker PerecTracker.org
    
Регистрация  ·  Вход
 
 · 
Забыли пароль?

  • Сказочная Русь. Президенты Удачи! (Студия "Квартал-95") [2015, мультфильм, сатира, SATRip]

    Ответить на тему
     
    Автор Сообщение

    Columb

    Создавать темы 02-Янв-2015 15:12

           

    [Цитировать]

    Сказочная Русь. Президенты Удачи!
    Дата/Год выпуска: 2015
    Страна: Украина
    Жанр: мультфильм, сатира
    Продолжительность: 01:13:24
    Перевод: Не требуется
    Русские субтитры: нет
    Оригинальная аудиодорожка: русский, украинский, суржик
    Производитель: Студия "Квартал-95"
    Телеканал: 1+1Описание: К Новому году создатели политического мультсериала "Сказочная Русь" сняли полнометражный мультфильм "Президенты Удачи!". В этот раз нашим анимационным персонажам, как и героям одноименного советского фильма, предстоит найти украденную реликвию - Золотой батон, принадлежавший покинувшему Русь царю Виктору Бывшему.Сэмпл: https://www.sendspace.com/file/gxgdv3
    качество: SATRip
    формат: AVI
    Видео: Xvid 720x400 (16:9) 25fps ~1536kbps
    Аудио: MP3 48000Hz stereo (2ch) 192kbps

    MediaInfo

    GeneralComplete name : I:\Мои раздачи\Сказочная Русь. Президенты Удачи.aviFormat : AVIFormat/Info : Audio Video InterleaveFile size : 911 MiBDuration : 1h 13mnOverall bit rate : 1 736 Kbps
    VideoID : 0Format : MPEG-4 VisualFormat profile : Advanced Simple@L5Format settings, BVOP : YesFormat settings, QPel : NoFormat settings, GMC : No warppointsFormat settings, Matrix : Default (H.263)Codec ID : XVIDCodec ID/Hint : XviDDuration : 1h 13mnBit rate : 1 534 KbpsWidth : 720 pixelsHeight : 400 pixelsDisplay aspect ratio : 16:9Frame rate : 25.000 fpsColor space : YUVChroma subsampling : 4:2:0Bit depth : 8 bitsScan type : ProgressiveCompression mode : LossyBits/(Pixel*Frame) : 0.213Stream size : 805 MiB (88%)Writing library : XviD 64
    AudioID : 1Format : MPEG AudioFormat version : Version 1Format profile : Layer 3Mode : Joint stereoMode extension : MS StereoCodec ID : 55Codec ID/Hint : MP3Duration : 1h 13mnBit rate mode : ConstantBit rate : 192 KbpsChannel(s) : 2 channelsSampling rate : 48.0 KHzCompression mode : LossyStream size : 101 MiB (11%)Alignment : Split accross interleavesInterleave, duration : 40 ms (1.00 video frame)Interleave, preload duration : 500 msWriting library : LAME3.98.2

    Скриншоты

    Скачать .torrent

    Скачать торрент-файл бесплатно и на максимальной скорости!

    Как скачивать? · Что такое торрент? · Рейтинг и ограничения

    !ВНИМАНИЕ!
    Сайт не распространяет и не хранит электронные версии произведений, а занимается лишь лишь предоставлением доступа к создаваемому пользователями каталогу ссылок на торрент-файлы, которые содержат только списки хеш-сумм, убедительная просьба с жалобами обращаться напрямую к пользователю. Файлы для обмена на трекере предоставлены пользователями сайта, и администрация не несёт ответственности за их содержание. Просьба не заливать файлы, защищенные авторскими правами, а также файлы нелегального содержания!

    [Профиль] [ЛС]
    Показать сообщения:    
    Ответить на тему

    Текущее время: Сегодня, в 16:19

    Часовой пояс: GMT + 2



    Вы не можете начинать темы
    Вы не можете отвечать на сообщения
    Вы не можете редактировать свои сообщения
    Вы не можете удалять свои сообщения
    Вы не можете голосовать в опросах
    Вы не можете прикреплять файлы к сообщениям
    Вы не можете скачивать файлы