Register  ·  Log in
Forgot password?

  • Сказочная Русь. Президенты Удачи! (Студия "Квартал-95") [2015, мультфильм, сатира, SATRip]

    Reply to topic
    Author Message


    Post 02-Jan-2015 16:12



    Сказочная Русь. Президенты Удачи!
    Дата/Год выпуска: 2015
    Страна: Украина
    Жанр: мультфильм, сатира
    Продолжительность: 01:13:24
    Перевод: Не требуется
    Русские субтитры: нет
    Оригинальная аудиодорожка: русский, украинский, суржик
    Производитель: Студия "Квартал-95"
    Телеканал: 1+1Описание: К Новому году создатели политического мультсериала "Сказочная Русь" сняли полнометражный мультфильм "Президенты Удачи!". В этот раз нашим анимационным персонажам, как и героям одноименного советского фильма, предстоит найти украденную реликвию - Золотой батон, принадлежавший покинувшему Русь царю Виктору Бывшему.Сэмпл:
    качество: SATRip
    формат: AVI
    Видео: Xvid 720x400 (16:9) 25fps ~1536kbps
    Аудио: MP3 48000Hz stereo (2ch) 192kbps


    GeneralComplete name : I:\Мои раздачи\Сказочная Русь. Президенты Удачи.aviFormat : AVIFormat/Info : Audio Video InterleaveFile size : 911 MiBDuration : 1h 13mnOverall bit rate : 1 736 Kbps
    VideoID : 0Format : MPEG-4 VisualFormat profile : Advanced Simple@L5Format settings, BVOP : YesFormat settings, QPel : NoFormat settings, GMC : No warppointsFormat settings, Matrix : Default (H.263)Codec ID : XVIDCodec ID/Hint : XviDDuration : 1h 13mnBit rate : 1 534 KbpsWidth : 720 pixelsHeight : 400 pixelsDisplay aspect ratio : 16:9Frame rate : 25.000 fpsColor space : YUVChroma subsampling : 4:2:0Bit depth : 8 bitsScan type : ProgressiveCompression mode : LossyBits/(Pixel*Frame) : 0.213Stream size : 805 MiB (88%)Writing library : XviD 64
    AudioID : 1Format : MPEG AudioFormat version : Version 1Format profile : Layer 3Mode : Joint stereoMode extension : MS StereoCodec ID : 55Codec ID/Hint : MP3Duration : 1h 13mnBit rate mode : ConstantBit rate : 192 KbpsChannel(s) : 2 channelsSampling rate : 48.0 KHzCompression mode : LossyStream size : 101 MiB (11%)Alignment : Split accross interleavesInterleave, duration : 40 ms (1.00 video frame)Interleave, preload duration : 500 msWriting library : LAME3.98.2


    Download .torrent

    Download free and at maximum speed!

    How to Download? · What is a torrent? · Ratings and Limitations

    The site does not extend and does not store electronic(digital) versions of products, and only gives access to a reference catalogue created by users on torrent-files which contain only lists of the hash-sums, the earnest entreaty, with complaints(abuse) to access directly to the user. Files for an exchange on tracker are given by users of a site, and the administration does not bear the responsibility for their maintenance. The request to not fill in the files protected by copyrights, and also files of the illegal maintenance!

    [Profile] [PM]
    Display posts from previous:    
    Reply to topic

    The time now is: Today 22:19

    All times are GMT + 3 Hours

    You cannot post new topics in this forum
    You cannot reply to topics in this forum
    You cannot edit your posts in this forum
    You cannot delete your posts in this forum
    You cannot vote in polls in this forum
    You cannot attach files in this forum
    You cannot download files in this forum