BitTorrentTracker PerecTracker.org
BitTorrentTracker PerecTracker.org
    
Регистрация  ·  Вход
 
 · 
Забыли пароль?

  • Большой Новогодний концерт 2015 / Великий Новорiчний концерт 2015 [2015, новогодний огонек, поп-музыка, SATRip]

    Ответить на тему
     
    Автор Сообщение

    Columb

    Создавать темы 02-Янв-2015 15:11

           

    [Цитировать]

    Большой Новогодний концерт 2015 / Великий Новорiчний концерт 2015
    Дата/Год выпуска: 2015
    Страна: Украина
    Жанр: новогодний огонек, поп-музыка
    Продолжительность: 02:26:05
    Перевод: Не требуется
    Русские субтитры: нет
    Оригинальная аудиодорожка: русский, украинский
    Телеканал: ТРК "Україна"Описание: В новогоднюю ночь для зрителей канала "Украина" споют София Ротару, Потап и Настя, Оля Полякова, Джамала, Александр Пономарев, Злата Огневич, Ирина Билык и Дима Коляденко, Анна Седокова, Маричка Яремчук, сестры Петрик, Макс Барских, Светлана Лобода, Алеша, Александр Кривошапко, Светлана Тарабарова, группы "Время и Стекло", "СКАЙ", "ТНМК", Виталий Козловский и многие другие. Звезды шоу-бизнеса исполнят всем знакомые и любимые с детства новогодние песни и новые композиции.
    Ведущими "Великого Новорічного Концерту" станут лица телеканала "Украина" — Алексей Суханов (ток-шоу "Говорить Україна"), Ильяс Сахтара, Ольга Бутко и Тала Калатай ("Утро с Украиной"), Олег Панюта ("События недели", "События дня"), Ольга Грицик и Анна Панова ("События дня"), Александр Денисов ("Великий футбол").
    Сэмпл: https://www.sendspace.com/file/xl7rn4
    качество: SATRip
    формат: AVI
    Видео: Xvid 720x400 (16:9) 25fps ~1536kbps
    Аудио: MP3 48000Hz stereo (2ch) 192kbps

    MediaInfo

    GeneralComplete name : I:\Мои раздачи\Большой Новогодний концерт 2015.aviFormat : AVIFormat/Info : Audio Video InterleaveFile size : 1.77 GiBDuration : 2h 26mnOverall bit rate : 1 737 Kbps
    VideoID : 0Format : MPEG-4 VisualFormat profile : Advanced Simple@L5Format settings, BVOP : 2Format settings, QPel : NoFormat settings, GMC : No warppointsFormat settings, Matrix : Default (H.263)Codec ID : XVIDCodec ID/Hint : XviDDuration : 2h 26mnBit rate : 1 535 KbpsWidth : 720 pixelsHeight : 400 pixelsDisplay aspect ratio : 16:9Frame rate : 25.000 fpsColor space : YUVChroma subsampling : 4:2:0Bit depth : 8 bitsScan type : ProgressiveCompression mode : LossyBits/(Pixel*Frame) : 0.213Stream size : 1.57 GiB (88%)Writing library : XviD 64
    AudioID : 1Format : MPEG AudioFormat version : Version 1Format profile : Layer 3Mode : Joint stereoMode extension : MS StereoCodec ID : 55Codec ID/Hint : MP3Duration : 2h 26mnBit rate mode : ConstantBit rate : 192 KbpsChannel(s) : 2 channelsSampling rate : 48.0 KHzCompression mode : LossyStream size : 201 MiB (11%)Alignment : Split accross interleavesInterleave, duration : 40 ms (1.00 video frame)Interleave, preload duration : 500 ms

    Скриншоты

    Скачать .torrent

    Скачать торрент-файл бесплатно и на максимальной скорости!

    Как скачивать? · Что такое торрент? · Рейтинг и ограничения

    !ВНИМАНИЕ!
    Сайт не распространяет и не хранит электронные версии произведений, а занимается лишь лишь предоставлением доступа к создаваемому пользователями каталогу ссылок на торрент-файлы, которые содержат только списки хеш-сумм, убедительная просьба с жалобами обращаться напрямую к пользователю. Файлы для обмена на трекере предоставлены пользователями сайта, и администрация не несёт ответственности за их содержание. Просьба не заливать файлы, защищенные авторскими правами, а также файлы нелегального содержания!

    [Профиль] [ЛС]
    Показать сообщения:    
    Ответить на тему

    Текущее время: Сегодня, в 16:25

    Часовой пояс: GMT + 2



    Вы не можете начинать темы
    Вы не можете отвечать на сообщения
    Вы не можете редактировать свои сообщения
    Вы не можете удалять свои сообщения
    Вы не можете голосовать в опросах
    Вы не можете прикреплять файлы к сообщениям
    Вы не можете скачивать файлы