BitTorrentTracker PerecTracker.org
BitTorrentTracker PerecTracker.org
    
Регистрация  ·  Вход
 
 · 
Забыли пароль?

  • Жди меня в Новый год [2015, новогодний огонек, поп-музыка, SATRip]

    Ответить на тему
     
    Автор Сообщение

    Columb

    Создавать темы 02-Янв-2015 14:56

           

    [Цитировать]

    Жди меня в Новый год
    Дата/Год выпуска: 2015
    Страна: Украина
    Жанр: новогодний огонек, поп-музыка
    Продолжительность: 03:23:59
    Перевод: Не требуется
    Русские субтитры: нет
    Оригинальная аудиодорожка: русский
    Телеканал: IнтерОписание: Действие проекта происходит в аэропорту, где накануне Нового года оказалось множество совершенно разных людей: кто-то спешит на праздник к родным или друзьям, кто-то приехал в аэропорт, чтобы встретить или проводить близкого человека, а кто-то летит в другой город на корпоратив или новогодний огонек. Но коррективы в планы людей вносит погода – из-за сильного снегопада все рейсы отменены, более того, все входные двери в аэропорту заблокированы - никто не может даже покинуть здание. У всех начинается паника – ведь празднование Нового года оказывается под угрозой!
    Ситуацию спасают Мария Шукшина и Михаил Ефремов, которые тоже застряли в этом аэропорту. Актерский талант и опыт совместной работы в качестве ведущих проекта "Жди меня" помогают им найти творческий подход к решению сложившейся проблемы. Они переодеваются в костюмы Деда Мороза и Снегурочки и организовывают грандиозный праздник прямо в зале ожидания!
    Помогают им в этом популярные исполнители и звезды эстрады, которые по счастливой случайности тоже оказываются в аэропорту. Среди них - Ирина Билык, Тина Кароль, Олег Скрипка, Наталья Могилевская, Александр Пономарев, Потап и Настя, Полина Гагарина, Злата Огневич, Мария Яремчук, Alyosha, Светлана Тарабарова, Виктор Павлик, группы "Город 312", "ТИК" и многие другие. Активное участие в организации новогодней программы принимают и работники аэропорта – дежурный Андрей Доманский, регистратор Надежда Мейхер, стюардессы Ольга Полякова и Мила Нитич, грузчик Дядя Жора, бармен Александр Скичко, и даже таксист Сергей Пархоменко (известный как рэпер Серега). А также пилоты и стюардессы "новогодних" авиалиний – ведущие телеканала "Интер": Жанна Тихонова, Анатолий Бондаренко, Анастасия Даугуле, Ирина Юсупова, Андрей Данилевич и Роман Кадемин.
    Так что в новогоднюю ночь и пассажирам, застрявшим в аэропорту, и телезрителям "Интера" перед экранами телевизоров скучать не придется. Новый год они встретят в компании популярных артистов, с любимыми песнями и искрометными шутками!
    Сэмпл: https://www.sendspace.com/file/mptb51
    качество: SATRip
    формат: AVI
    Видео: Xvid 720x400 (16:9) 25fps ~1536kbps
    Аудио: MP3 48000Hz stereo (2ch) 192kbps

    MediaInfo

    GeneralComplete name : I:\Мои раздачи\Жди меня в Новый год.aviFormat : AVIFormat/Info : Audio Video InterleaveFormat profile : OpenDMLFile size : 2.48 GiBDuration : 3h 23mnOverall bit rate : 1 739 Kbps
    VideoID : 0Format : MPEG-4 VisualFormat profile : Advanced Simple@L5Format settings, BVOP : YesFormat settings, QPel : NoFormat settings, GMC : No warppointsFormat settings, Matrix : Default (H.263)Codec ID : XVIDCodec ID/Hint : XviDDuration : 3h 23mnBit rate : 1 535 KbpsWidth : 720 pixelsHeight : 400 pixelsDisplay aspect ratio : 16:9Frame rate : 25.000 fpsColor space : YUVChroma subsampling : 4:2:0Bit depth : 8 bitsScan type : ProgressiveCompression mode : LossyBits/(Pixel*Frame) : 0.213Stream size : 2.19 GiB (88%)Writing library : XviD 64
    AudioID : 1Format : MPEG AudioFormat version : Version 1Format profile : Layer 3Mode : Joint stereoMode extension : MS StereoCodec ID : 55Codec ID/Hint : MP3Duration : 3h 23mnBit rate mode : ConstantBit rate : 192 KbpsChannel(s) : 2 channelsSampling rate : 48.0 KHzCompression mode : LossyStream size : 280 MiB (11%)Alignment : Split accross interleavesInterleave, duration : 40 ms (1.00 video frame)Interleave, preload duration : 500 ms

    Скриншоты

    Скачать .torrent

    Скачать торрент-файл бесплатно и на максимальной скорости!

    Как скачивать? · Что такое торрент? · Рейтинг и ограничения

    !ВНИМАНИЕ!
    Сайт не распространяет и не хранит электронные версии произведений, а занимается лишь лишь предоставлением доступа к создаваемому пользователями каталогу ссылок на торрент-файлы, которые содержат только списки хеш-сумм, убедительная просьба с жалобами обращаться напрямую к пользователю. Файлы для обмена на трекере предоставлены пользователями сайта, и администрация не несёт ответственности за их содержание. Просьба не заливать файлы, защищенные авторскими правами, а также файлы нелегального содержания!

    [Профиль] [ЛС]
    Показать сообщения:    
    Ответить на тему

    Текущее время: Сегодня, в 18:37

    Часовой пояс: GMT + 2



    Вы не можете начинать темы
    Вы не можете отвечать на сообщения
    Вы не можете редактировать свои сообщения
    Вы не можете удалять свои сообщения
    Вы не можете голосовать в опросах
    Вы не можете прикреплять файлы к сообщениям
    Вы не можете скачивать файлы