BitTorrentTracker PerecTracker.org
BitTorrentTracker PerecTracker.org
    
Регистрация  ·  Вход
 
 · 
Забыли пароль?

  • Подробности. Январь 2015 года (Алексей Лихман, Наталья Белышева и Дмитрий Онопченко) [2015, информационная программа, SATRip] 7 выпусков

    Ответить на тему
     
    Автор Сообщение

    Columb

    Создавать темы 02-Янв-2015 14:51

           

    [Цитировать]

    Подробности. Январь 2015 года
    Дата/Год выпуска: 2015
    Страна: Украина
    Жанр: информационная программа
    Продолжительность: ~45 мин. каждый выпуск
    Перевод: Не требуется
    Русские субтитры: нет
    Оригинальная аудиодорожка: русский
    Ведущие: Алексей Лихман, Наталья Белышева и Дмитрий Онопченко
    Телеканал: Iнтер/Iнтер+Описание: "Подробности". Самое известное в Украине имя новостей - главная информационная программа страны. "Подробности" - это объективность, эксклюзивность и качество подачи новостей. Это все самое интересное в Украине и на планете: политика, экономика, культура и спорт, происшествия и светская хроника. "Подробности" - это десятки репортеров в городах Украины и постоянно действующие корпункты в США, Великобритании, Германии и России. Это специальные корреспонденты, готовые немедленно отправиться в любую точку мира и выйти в прямой эфир. "Подробности" - это лучшая новостная команда страны.
    Доп. информация: Программа на русском языке, но украинская речь присутствует. Время в списке выпусков указано киевское.
    Сэмпл: https://www.sendspace.com/file/e00zdq
    качество: SATRip
    формат: AVI
    Видео: Xvid 704x528 (4:3) ~1 024 kbps 25fps
    Аудио: MP3 128 kbps 48 kHz 2 ch

    Список выпусков/серий

    1. 1 января 2015 года (20:00).
    2. 2 января 2015 года (20:00).
    3. 3 января 2015 года (20:00).
    4. 4 января 2015 года (20:00).
    5. 5 января 2015 года (20:00).
    6. 6 января 2015 года (20:00).
    7. 7 января 2015 года (20:00).

    MediaInfo

    GeneralComplete name : I:\Мои раздачи\Подробности\Подробности. Январь 2015\Подробности (2015-01-01) 20.00.aviFormat : AVIFormat/Info : Audio Video InterleaveFile size : 304 MiBDuration : 36mn 36sOverall bit rate : 1 161 Kbps
    VideoID : 0Format : MPEG-4 VisualFormat profile : Advanced Simple@L5Format settings, BVOP : 2Format settings, QPel : NoFormat settings, GMC : No warppointsFormat settings, Matrix : Default (H.263)Codec ID : XVIDCodec ID/Hint : XviDDuration : 36mn 36sBit rate : 1 024 KbpsWidth : 704 pixelsHeight : 528 pixelsDisplay aspect ratio : 4:3Frame rate : 25.000 fpsColor space : YUVChroma subsampling : 4:2:0Bit depth : 8 bitsScan type : ProgressiveCompression mode : LossyBits/(Pixel*Frame) : 0.110Stream size : 268 MiB (88%)Writing library : XviD 64
    AudioID : 1Format : MPEG AudioFormat version : Version 1Format profile : Layer 3Mode : Joint stereoMode extension : MS StereoCodec ID : 55Codec ID/Hint : MP3Duration : 36mn 35sBit rate mode : ConstantBit rate : 128 KbpsChannel(s) : 2 channelsSampling rate : 48.0 KHzCompression mode : LossyStream size : 33.5 MiB (11%)Alignment : Split accross interleavesInterleave, duration : 40 ms (1.00 video frame)Interleave, preload duration : 500 ms

    Скриншоты

    Скачать .torrent

    Скачать торрент-файл бесплатно и на максимальной скорости!

    Как скачивать? · Что такое торрент? · Рейтинг и ограничения

    !ВНИМАНИЕ!
    Сайт не распространяет и не хранит электронные версии произведений, а занимается лишь лишь предоставлением доступа к создаваемому пользователями каталогу ссылок на торрент-файлы, которые содержат только списки хеш-сумм, убедительная просьба с жалобами обращаться напрямую к пользователю. Файлы для обмена на трекере предоставлены пользователями сайта, и администрация не несёт ответственности за их содержание. Просьба не заливать файлы, защищенные авторскими правами, а также файлы нелегального содержания!

    [Профиль] [ЛС]
    Показать сообщения:    
    Ответить на тему

    Текущее время: Сегодня, в 06:14

    Часовой пояс: GMT + 2



    Вы не можете начинать темы
    Вы не можете отвечать на сообщения
    Вы не можете редактировать свои сообщения
    Вы не можете удалять свои сообщения
    Вы не можете голосовать в опросах
    Вы не можете прикреплять файлы к сообщениям
    Вы не можете скачивать файлы