BitTorrentTracker PerecTracker.org
BitTorrentTracker PerecTracker.org
    
Регистрация  ·  Вход
 
 · 
Забыли пароль?

  • Elton John and His Band • I'm Still Standing (Dick Clark's New Year's Rockin' Eve 2015) [2014, Pop, HDTV 720p]

    Ответить на тему
     
    Автор Сообщение

    Columb

    Создавать темы 02-Янв-2015 12:27

           

    [Цитировать]

    Elton John and His Band
    I'm Still Standing
    (Dick Clark's New Year's Rockin' Eve 2015)



    Жанр: Pop
    Продолжительность: 00:03:53
    Год выпуска: December 31, 2014
    Качество: HDTV 720p
    Контейнер: TS
    Видео кодек: MPEG2
    Аудио кодек: AC3
    Видео: MPEG2 Video 1280x720 59.94fps 10.5 Mbps
    Аудио: Dolby AC3 48000Hz 6ch 384kbps

    Треклист

    Elton John - vocals, piano
    John Mahon - percussion, drums, vocals
    Kim Bullard - keyboards
    Matt Bissonette (David Lee Roth, Joe Satriani, Ringo Starr) - bass, vocals
    Nigel Olsson - drums
    Davey Johnstone - guitars, vocals
    I'm Still Standing

    Отчёт MediaInfo / BDInfo

    GeneralID : 1 (0x1)Complete name : L:\Elton John - I'm Still Standing (2014-12-31).tsFormat : MPEG-TSFile size : 319 MiBDuration : 3mn 53sOverall bit rate mode : VariableOverall bit rate : 11.5 MbpsMovie name : DICK CLARK'S NEW YEAR'S ROCKINLaw rating : TV-PG (DL)
    VideoID : 800 (0x320)Menu ID : 1 (0x1)Format : MPEG VideoFormat version : Version 2Format profile : Main@HighFormat settings, BVOP : YesFormat settings, Matrix : CustomFormat settings, GOP : VariableCodec ID : 2Duration : 3mn 52sBit rate mode : VariableBit rate : 10.5 MbpsMaximum bit rate : 24.0 MbpsWidth : 1 280 pixelsHeight : 720 pixelsDisplay aspect ratio : 16:9Frame rate : 59.940 fpsColor space : YUVChroma subsampling : 4:2:0Bit depth : 8 bitsScan type : ProgressiveCompression mode : LossyBits/(Pixel*Frame) : 0.191Time code of first frame : 00:00:00;00Time code source : Group of pictures headerStream size : 292 MiB (92%)
    AudioID : 801 (0x321)Menu ID : 1 (0x1)Format : AC-3Format/Info : Audio Coding 3Mode extension : CM (complete main)Format settings, Endianness : BigCodec ID : 129Duration : 3mn 52sBit rate mode : ConstantBit rate : 384 KbpsChannel(s) : 6 channelsChannel positions : Front: L C R, Side: L R, LFESampling rate : 48.0 KHzBit depth : 16 bitsCompression mode : LossyDelay relative to video : 8msStream size : 10.7 MiB (3%)Language : English

    Скриншоты


    Скачать .torrent

    Скачать торрент-файл бесплатно и на максимальной скорости!

    Как скачивать? · Что такое торрент? · Рейтинг и ограничения

    !ВНИМАНИЕ!
    Сайт не распространяет и не хранит электронные версии произведений, а занимается лишь лишь предоставлением доступа к создаваемому пользователями каталогу ссылок на торрент-файлы, которые содержат только списки хеш-сумм, убедительная просьба с жалобами обращаться напрямую к пользователю. Файлы для обмена на трекере предоставлены пользователями сайта, и администрация не несёт ответственности за их содержание. Просьба не заливать файлы, защищенные авторскими правами, а также файлы нелегального содержания!

    [Профиль] [ЛС]
    Показать сообщения:    
    Ответить на тему

    Текущее время: Сегодня, в 18:42

    Часовой пояс: GMT + 2



    Вы не можете начинать темы
    Вы не можете отвечать на сообщения
    Вы не можете редактировать свои сообщения
    Вы не можете удалять свои сообщения
    Вы не можете голосовать в опросах
    Вы не можете прикреплять файлы к сообщениям
    Вы не можете скачивать файлы