Register  ·  Log in
Forgot password?

  • Elton John and His Band • I'm Still Standing (Dick Clark's New Year's Rockin' Eve 2015) [2014, Pop, HDTV 720p]

    Reply to topic
    Author Message


    Post 02-Jan-2015 13:27



    Elton John and His Band
    I'm Still Standing
    (Dick Clark's New Year's Rockin' Eve 2015)

    Жанр: Pop
    Продолжительность: 00:03:53
    Год выпуска: December 31, 2014
    Качество: HDTV 720p
    Контейнер: TS
    Видео кодек: MPEG2
    Аудио кодек: AC3
    Видео: MPEG2 Video 1280x720 59.94fps 10.5 Mbps
    Аудио: Dolby AC3 48000Hz 6ch 384kbps


    Elton John - vocals, piano
    John Mahon - percussion, drums, vocals
    Kim Bullard - keyboards
    Matt Bissonette (David Lee Roth, Joe Satriani, Ringo Starr) - bass, vocals
    Nigel Olsson - drums
    Davey Johnstone - guitars, vocals
    I'm Still Standing

    Отчёт MediaInfo / BDInfo

    GeneralID : 1 (0x1)Complete name : L:\Elton John - I'm Still Standing (2014-12-31).tsFormat : MPEG-TSFile size : 319 MiBDuration : 3mn 53sOverall bit rate mode : VariableOverall bit rate : 11.5 MbpsMovie name : DICK CLARK'S NEW YEAR'S ROCKINLaw rating : TV-PG (DL)
    VideoID : 800 (0x320)Menu ID : 1 (0x1)Format : MPEG VideoFormat version : Version 2Format profile : Main@HighFormat settings, BVOP : YesFormat settings, Matrix : CustomFormat settings, GOP : VariableCodec ID : 2Duration : 3mn 52sBit rate mode : VariableBit rate : 10.5 MbpsMaximum bit rate : 24.0 MbpsWidth : 1 280 pixelsHeight : 720 pixelsDisplay aspect ratio : 16:9Frame rate : 59.940 fpsColor space : YUVChroma subsampling : 4:2:0Bit depth : 8 bitsScan type : ProgressiveCompression mode : LossyBits/(Pixel*Frame) : 0.191Time code of first frame : 00:00:00;00Time code source : Group of pictures headerStream size : 292 MiB (92%)
    AudioID : 801 (0x321)Menu ID : 1 (0x1)Format : AC-3Format/Info : Audio Coding 3Mode extension : CM (complete main)Format settings, Endianness : BigCodec ID : 129Duration : 3mn 52sBit rate mode : ConstantBit rate : 384 KbpsChannel(s) : 6 channelsChannel positions : Front: L C R, Side: L R, LFESampling rate : 48.0 KHzBit depth : 16 bitsCompression mode : LossyDelay relative to video : 8msStream size : 10.7 MiB (3%)Language : English


    Download .torrent

    Download free and at maximum speed!

    How to Download? · What is a torrent? · Ratings and Limitations

    The site does not extend and does not store electronic(digital) versions of products, and only gives access to a reference catalogue created by users on torrent-files which contain only lists of the hash-sums, the earnest entreaty, with complaints(abuse) to access directly to the user. Files for an exchange on tracker are given by users of a site, and the administration does not bear the responsibility for their maintenance. The request to not fill in the files protected by copyrights, and also files of the illegal maintenance!

    [Profile] [PM]
    Display posts from previous:    
    Reply to topic

    The time now is: Today 13:25

    All times are GMT + 3 Hours

    You cannot post new topics in this forum
    You cannot reply to topics in this forum
    You cannot edit your posts in this forum
    You cannot delete your posts in this forum
    You cannot vote in polls in this forum
    You cannot attach files in this forum
    You cannot download files in this forum