BitTorrentTracker PerecTracker.org
BitTorrentTracker PerecTracker.org
    
Регистрация  ·  Вход
 
 · 
Забыли пароль?

  • Отличный Новый год на Пятом! Звёзды Дорожного радио ( эфир 2015.01.01) [2014, Pop, DVB]

    Ответить на тему
     
    Автор Сообщение

    Columb

    Создавать темы 02-Янв-2015 12:12

           

    [Цитировать]

    Отличный Новый год на Пятом! Звёзды Дорожного радио ( эфир 2015.01.01)
    Жанр: Pop
    Продолжительность: 01:43:23
    Год выпуска: 2014
    Описание: Новогодняя ночь на Пятом канале будет наполнена любимой музыкой. До полуночи за настроение зрителей будут отвечать «Звёзды Дорожного радио»
    Качество: DVB
    Контейнер: MPG
    Видео кодек: MPEG2
    Аудио кодек: MP2
    Видео: MPEG2 Video 720x576 (4:3) 25.00fps ~3 796 Kbps
    Аудио: MPEG Audio 48000Hz 2 channels 192 Кбит/сек

    Отчёт MediaInfo / BDInfo

    GeneralComplete name : Q:\2014-2015 НОВОГОДНИЕ\Отличный Новый год на Пятом! Звёзды Дорожного радио 2015.01.01.mpgFormat : MPEG-PSFile size : 2.94 GiBDuration : 1h 43mnOverall bit rate mode : VariableOverall bit rate : 4 069 KbpsWriting library : (c) 1998-2012 Womble Multimedia, Inc. / MPEG Video Wizard DVD 5.0.1.100 (03/2011) / Sep 22 2012
    VideoID : 224 (0xE0)Format : MPEG VideoFormat version : Version 2Format profile : Main@MainFormat settings, BVOP : YesFormat settings, Matrix : CustomFormat settings, GOP : M=3, N=15Format settings, picture struc : FrameDuration : 1h 43mnBit rate mode : VariableBit rate : 3 796 KbpsMaximum bit rate : 15.0 MbpsWidth : 720 pixelsHeight : 576 pixelsDisplay aspect ratio : 4:3Frame rate : 25.000 fpsStandard : PALColor space : YUVChroma subsampling : 4:2:0Bit depth : 8 bitsScan type : InterlacedScan order : Top Field FirstCompression mode : LossyBits/(Pixel*Frame) : 0.366Time code of first frame : 00:00:00:00Time code source : Group of pictures headerGOP, Open/Closed : OpenStream size : 2.74 GiB (93%)Writing library : (c) 1998-2012 Womble Multimedia, Inc. / MPEG Video Wizard DVD 5.0.1.100 (03/2011) / Sep 22 2012GOP, Open/Closed of first fram : Closed
    AudioID : 192 (0xC0)Format : MPEG AudioFormat version : Version 1Format profile : Layer 2Duration : 1h 43mnBit rate mode : ConstantBit rate : 192 KbpsChannel(s) : 2 channelsSampling rate : 48.0 KHzCompression mode : LossyStream size : 142 MiB (5%)
    Menu

    Скриншоты


    Скачать .torrent

    Скачать торрент-файл бесплатно и на максимальной скорости!

    Как скачивать? · Что такое торрент? · Рейтинг и ограничения

    !ВНИМАНИЕ!
    Сайт не распространяет и не хранит электронные версии произведений, а занимается лишь лишь предоставлением доступа к создаваемому пользователями каталогу ссылок на торрент-файлы, которые содержат только списки хеш-сумм, убедительная просьба с жалобами обращаться напрямую к пользователю. Файлы для обмена на трекере предоставлены пользователями сайта, и администрация не несёт ответственности за их содержание. Просьба не заливать файлы, защищенные авторскими правами, а также файлы нелегального содержания!

    [Профиль] [ЛС]
    Показать сообщения:    
    Ответить на тему

    Текущее время: Сегодня, в 04:08

    Часовой пояс: GMT + 2



    Вы не можете начинать темы
    Вы не можете отвечать на сообщения
    Вы не можете редактировать свои сообщения
    Вы не можете удалять свои сообщения
    Вы не можете голосовать в опросах
    Вы не можете прикреплять файлы к сообщениям
    Вы не можете скачивать файлы