BitTorrentTracker PerecTracker.org
BitTorrentTracker PerecTracker.org
    
Регистрация  ·  Вход
 
 · 
Забыли пароль?

  • Отличный Новый год на Пятом! Легенды Ретро FM ( эфир 2015.01.01) [2014, Pop, DVB]

    Ответить на тему
     
    Автор Сообщение

    Columb

    Создавать темы 02-Янв-2015 12:11

           

    [Цитировать]

    Отличный Новый год на Пятом! Легенды Ретро FM ( эфир 2015.01.01)
    Год выпуска: 2014
    Страна: Россия
    Жанр: Pop
    Продолжительность: 01:55:12 + 01:58:17
    Описание: За два часа до Нового года Пятый дает старт 8-часовому музыкальному марафону с участием звезд российской и зарубежной эстрады. Лучшие концерты этого года! Популярные артисты и зажигательные хиты в новогоднюю ночь до самого утра 1 января. Мы будем петь и танцевать вместе с Филиппом Киркоровым, Кристиной Орбакайте, Юрием Антоновым, Александром Буйновым, Лаймой Вайкуле, Валерием Леонтьевым, Татьяной Булановой, Олегом Газмановым, Анне Вески, Денисом Майдановым, певицей Натали, группой Нэнси, Ириной Салтыковой, Самантой Фокс, Пупо, Рики и Повери, Си Си Кетч, группой Фабрика, Денисом Клявером и многими-многими другими.

    Треклист

    1 часть
    Юрий Антонов-Я вспоминаю (Летящей походкой)
    Мираж - Наступает ночь (Суханкина)
    baccara - yes sir, i can boogie (Да, сэр, я могу танцевать буги-вуги)
    Анжелика Варум - Зимняя Вишня
    Al Bano - Felicita
    Лев Лещенко - Соловьиная роща
    C.C.Catch - I Can Lose My Heart Tonight (Я могу потерять сердце этой ночью)
    Юрий Лоза - На Маленьком Плоту
    Secret Service - Ten O'clock Postman ( Голубь почтовый Принеси мне ее письмо.)
    Мираж - Музыка Нас Связала (Суханкина)
    Gianni Morandi & Al Bano - Azzurro
    Лещенко Лев - Прощай!
    Afric Simone - Hafanana
    Крис Кельми - Ночное рандеву
    Secret Service - Flash In The Night (Вспышка в ночи)
    Анжелика Варум - Ля-Ля-Фа
    Baccara - Sorry, I'm A Lady (Извините, я — леди)
    Юрий Антонов - Нет тебя прекрасней
    Александр Айвазов - Лилии
    Al Bano - Sharazan
    Юрий Лоза - 100 часов
    Afric Simone - Todo Pasara,Maria (Все пройдет, Мария)
    Юрий Антонов - Не забывай
    Наташа Королева - Желтые тюльпаны
    Олег Газманов - Белый снег
    Ирина Аллегрова - Привет, Андрей!
    Ядвига Поплавская и Александр Тиханович - Малиновки заслышав голосок
    Мираж - Я больше не прошу (Суханкина)
    Наташа Королёва - Синие лебеди
    Юрий Антонов Крыша Дома Твоего
    2 часть
    Валерий Леонтьев - Зеленый свет
    Анне Вески - Позади крутой поворот
    Dschinghis Khan — Moskau
    Лада Дэнс - Один раз в год сады цветут
    Ирина Аллегрова - Угонщица
    ВИА Поющие гитары - Синяя Песня (Синий Иней)
    Joy - Touch By Touch
    Андрей Державин - Не плачь Алиса
    Afric Simone - Hafanana
    Валерий Леонтьев - Полет на Дельтаплане
    C.C. Catch - Soul Survivor
    Вадим Казаченко - Ах, какая женщина
    Анне Вески - Кто Тебе Сказал (В. Добрынин - Л. Дербенёв)
    Виктор Салтыков - Кони в яблоках
    Dr. Alban - It's my life
    Ирина Аллегрова - Свадебные Цветы
    Лада Дэнс - Регги в ночи (Жить нужно в кайф)
    Joy - Valerie
    Валерий Леонтьев - Кабаре
    Pupo - Gelato Al Cioccolato
    Вадим Казаченко - На летящем коне
    Afric Simone - Todo Pasara,Maria
    ВИА Поющие гитары - Люди встречаются
    Dschinghis Khan — Dschinghis Khan
    Андрей Державин - Чужая свадьба
    Pupo - Burattino telecomandato
    Лада Дэнс - Аромат любви
    Валерий Леонтьев - Бездомная любовь
    Вадим Казаченко - Больно Мне, Больно
    Pupo - Su di Noi
    Лада Денс - Девочка ночь
    качество: DVB
    формат: MPG
    Видео: MPEG2 Video 720x576 (4:3) 25.00fps ~4 109 Kbps
    Аудио: MPEG Audio 48000Hz 2 channels 192 Кбит/сек

    Отчёт MediaInfo / BDInfo

    GeneralComplete name : Q:\2014-2015 НОВОГОДНИЕ\Отличный Новый год на Пятом! Легенды Ретро FM 2015.01.01\Отличный Новый год на Пятом! Легенды Ретро FM 1 часть 2015.01.01.mpgFormat : MPEG-PSFile size : 3.53 GiBDuration : 1h 55mnOverall bit rate mode : VariableOverall bit rate : 4 389 KbpsWriting library : (c) 1998-2012 Womble Multimedia, Inc. / MPEG Video Wizard DVD 5.0.1.100 (03/2011) / Sep 22 2012
    VideoID : 224 (0xE0)Format : MPEG VideoFormat version : Version 2Format profile : Main@MainFormat settings, BVOP : YesFormat settings, Matrix : CustomFormat settings, GOP : M=3, N=15Format settings, picture struc : FrameDuration : 1h 55mnBit rate mode : VariableBit rate : 4 109 KbpsMaximum bit rate : 15.0 MbpsWidth : 720 pixelsHeight : 576 pixelsDisplay aspect ratio : 4:3Frame rate : 25.000 fpsStandard : PALColor space : YUVChroma subsampling : 4:2:0Bit depth : 8 bitsScan type : InterlacedScan order : Top Field FirstCompression mode : LossyBits/(Pixel*Frame) : 0.396Time code of first frame : 00:00:00:00Time code source : Group of pictures headerGOP, Open/Closed : OpenStream size : 3.31 GiB (94%)Writing library : (c) 1998-2012 Womble Multimedia, Inc. / MPEG Video Wizard DVD 5.0.1.100 (03/2011) / Sep 22 2012GOP, Open/Closed of first fram : Closed
    AudioID : 192 (0xC0)Format : MPEG AudioFormat version : Version 1Format profile : Layer 2Duration : 1h 55mnBit rate mode : ConstantBit rate : 192 KbpsChannel(s) : 2 channelsSampling rate : 48.0 KHzCompression mode : LossyStream size : 158 MiB (4%)
    Menu

    Скриншоты

    Скачать .torrent

    Скачать торрент-файл бесплатно и на максимальной скорости!

    Как скачивать? · Что такое торрент? · Рейтинг и ограничения

    !ВНИМАНИЕ!
    Сайт не распространяет и не хранит электронные версии произведений, а занимается лишь лишь предоставлением доступа к создаваемому пользователями каталогу ссылок на торрент-файлы, которые содержат только списки хеш-сумм, убедительная просьба с жалобами обращаться напрямую к пользователю. Файлы для обмена на трекере предоставлены пользователями сайта, и администрация не несёт ответственности за их содержание. Просьба не заливать файлы, защищенные авторскими правами, а также файлы нелегального содержания!

    [Профиль] [ЛС]
    Показать сообщения:    
    Ответить на тему

    Текущее время: Сегодня, в 10:41

    Часовой пояс: GMT + 2



    Вы не можете начинать темы
    Вы не можете отвечать на сообщения
    Вы не можете редактировать свои сообщения
    Вы не можете удалять свои сообщения
    Вы не можете голосовать в опросах
    Вы не можете прикреплять файлы к сообщениям
    Вы не можете скачивать файлы