BitTorrentTracker PerecTracker.org
BitTorrentTracker PerecTracker.org
    
Регистрация  ·  Вход
 
 · 
Забыли пароль?

  • Репортаж: Апокалипсис / [REC] 4: Apocalipsis (Жауме Балагуэро / Jaume Balaguero) [2014, Испания, ужасы, BDRip] VO (Замез)

    Ответить на тему
     
    Автор Сообщение

    Columb

    Создавать темы 01-Янв-2015 13:48

           

    [Цитировать]

    Репортаж: Апокалипсис / [REC] 4: Apocalipsis«It's time to get out»-Год выпуска: 2014
    Жанр: ужасы
    Страна: Испания
    Продолжительность: 01:34:59
    Перевод: Одноголосый, закадровый - Вячеслав Замез по переводу Janetta
    Субтитры: нет-Режиссёр: Жауме Балагуэро / Jaume Balagueró-В ролях: Мануэла Веласко, Хавьер Ботет, Пако Мансанедо, Мария Альфонса Россо, Исмаэль Фричи, Криспуло Кабесас, Марк Шардан, Эктор Коломе, Мариано Венансио, Эмилио Буале, Хавьер Лаорден, Халед Кука, Кристиан Акино, Карлос Сабала, Пако Обрегон-Описание: Анхела приходит в себя на корабле посреди океана. После вспышки эпидемии неизвестного вируса, превращающего людей в зомби, ученые решили изолировать инфицированных, но не заболевших людей, чтобы исследовать природу заразы. На специально оборудованном бывшем нефтяном танкере есть все необходимое оборудование для проведения лабораторных экспериментов. Но, ни ученые, ни команда даже не догадываются, что их ждет. Ведь инфицированные несут в себе гибель для всего человечества.- -Сэмпл: http://multi-up.com/1023892-Качество: BDRip [REC.4.Apocalypse.2014.MULTi.COMPLETE.BLURAY-XORBiTANT]
    Формат: AVI
    Видео: 720x304 (2.37:1), 24.000 fps, XviD build 73 ~1737 kbps avg, 0.33 bit/pixel
    Аудио: 48 kHz, AC3 Dolby Digital, 3/2 (L,C,R,l,r) + LFE ch, ~448.00 kbps avg
    -

    Media Info

    Format                      : AVI
    Format/Info                 : Audio Video Interleave
    File size                   : 1.46 GiB
    Duration                    : 1h 34mn
    Overall bit rate            : 2 195 Kbps
    Writing application         : VirtualDubMod 1.5.10.3 | www.virtualdub-fr.org || (build 2550/release)
    Writing library             : VirtualDubMod build 2550/release
    Video
    ID                          : 0
    Format                      : MPEG-4 Visual
    Format profile              : Advanced Simple@L5
    Format settings, BVOP       : 1
    Format settings, QPel       : No
    Format settings, GMC        : No warppoints
    Format settings, Matrix     : Custom
    Codec ID                    : XVID
    Codec ID/Hint               : XviD
    Duration                    : 1h 34mn
    Bit rate                    : 1 737 Kbps
    Width                       : 720 pixels
    Height                      : 304 pixels
    Display aspect ratio        : 2.35:1
    Frame rate                  : 24.000 fps
    Color space                 : YUV
    Chroma subsampling          : 4:2:0
    Bit depth                   : 8 bits
    Scan type                   : Progressive
    Compression mode            : Lossy
    Bits/(Pixel*Frame)          : 0.331
    Stream size                 : 1.15 GiB (79%)
    Writing library             : XviD 73
    Audio
    ID                          : 1
    Format                      : AC-3
    Format/Info                 : Audio Coding 3
    Mode extension              : CM (complete main)
    Format settings, Endianness : Big
    Codec ID                    : 2000
    Duration                    : 1h 34mn
    Bit rate mode               : Constant
    Bit rate                    : 448 Kbps
    Channel(s)                  : 6 channels
    Channel positions           : Front: L C R, Side: L R, LFE
    Sampling rate               : 48.0 KHz
    Bit depth                   : 16 bits
    Compression mode            : Lossy
    Stream size                 : 304 MiB (20%)
    Alignment                   : Split accross interleaves
    Interleave, duration        : 42 ms (1.00 video frame)
    Interleave, preload duratio : 500 ms

    Скриншоты

    За исходную аудиодорожку спасибо dart84
    Скачать .torrent

    Скачать торрент-файл бесплатно и на максимальной скорости!

    Как скачивать? · Что такое торрент? · Рейтинг и ограничения

    !ВНИМАНИЕ!
    Сайт не распространяет и не хранит электронные версии произведений, а занимается лишь лишь предоставлением доступа к создаваемому пользователями каталогу ссылок на торрент-файлы, которые содержат только списки хеш-сумм, убедительная просьба с жалобами обращаться напрямую к пользователю. Файлы для обмена на трекере предоставлены пользователями сайта, и администрация не несёт ответственности за их содержание. Просьба не заливать файлы, защищенные авторскими правами, а также файлы нелегального содержания!

    [Профиль] [ЛС]
    Показать сообщения:    
    Ответить на тему

    Текущее время: Сегодня, в 05:58

    Часовой пояс: GMT + 2



    Вы не можете начинать темы
    Вы не можете отвечать на сообщения
    Вы не можете редактировать свои сообщения
    Вы не можете удалять свои сообщения
    Вы не можете голосовать в опросах
    Вы не можете прикреплять файлы к сообщениям
    Вы не можете скачивать файлы