BitTorrentTracker PerecTracker.org
BitTorrentTracker PerecTracker.org
    
Регистрация  ·  Вход
 
 · 
Забыли пароль?

  • Рука смерти / The Hand of Death / Shao Lin men (Джон Ву / John Woo) [1976, Китай, Гонконг, боевик, DVDRip] AVO [П. Санаев]

    Ответить на тему
     
    Автор Сообщение

    Columb

    Создавать темы 01-Янв-2015 13:48

           

    [Цитировать]

    Рука смерти / The Hand of Death / Shao Lin men--Страна: Китай, Гонконг
    Жанр: боевик
    Год выпуска: 1976
    Продолжительность: 01:32:17-Перевод: Авторский (одноголосый закадровый) [П. Санаев]-Cубтитры: нет
    Оригинальная аудиодорожка: нет
    Режиссер: Джон Ву / John Woo
    В ролях: Тао-Лианг Тан, Джеймс Тьен, Вэй Енг, Джеки Чан, Саммо Кам-Бо Хунг, Джон Ву, Лин Фенг, Картер Вон, Юэнь Бяо, Юэнь Ва...
    Описание: Далекая эпоха династии Цинь в Китае. Маньчжуры ведут кровавуювойну в Китае. Оплотом сопротивления китайского народа становятся воины-монахи манастыря Шаолинь, расположенного на юге страны. Молодой воин-послушник обнаруживает предателей и в смертельной схватке с многочисленными врагами одерживает верх.
    Релиз от -
    Качество видео: DVDRip
    Формат видео: AVI
    Видео: MPEG-4 Visual at 993 Кбит/сек; 688 x 304 (2.263) at 23.976 fps
    Аудио: MPEG Audio at 128 Кбит/сек; 2 канала, 48,0 КГц
    Автор -

    MediaInfo

    Общее
    Полное имя : D:\Фильмы\Азиатские\Рука смерти\Hand of Death.1975.DVDRip.XviD.745MB. rip by [Assassin's Creed].avi
    Формат : AVI
    Формат/Информация : Audio Video Interleave
    Размер файла : 747 Мбайт
    Продолжительность : 1 ч. 32 м.
    Общий поток : 1130 Кбит/сек
    Программа кодирования : VirtualDubMod 1.5.10.3 | www.virtualdub-fr.org || (build 2550/release)
    Библиотека кодирования : VirtualDubMod build 2550/release
    Видео
    Идентификатор : 0
    Формат : MPEG-4 Visual
    Профиль формата : Advanced Simple@L5
    Параметр BVOP формата : 1
    Параметр QPel формата : Нет
    Параметр GMC формата : Без точки перехода
    Параметр матрицы формата : Default (MPEG)
    Идентификатор кодека : XVID
    Идентификатор кодека/Подсказка : XviD
    Продолжительность : 1 ч. 32 м.
    Битрейт : 993 Кбит/сек
    Ширина : 688 пикселей
    Высота : 304 пикселя
    Соотношение сторон : 2,25:1
    Частота кадров : 23,976 кадра/сек
    Цветовое пространство : YUV
    Субдискретизация насыщенности : 4:2:0
    Битовая глубина : 8 бит
    Тип развёртки : Прогрессивная
    Метод сжатия : С потерями
    Бит/(Пиксели*Кадры) : 0.198
    Размер потока : 656 Мбайт (88%)
    Библиотека кодирования : XviD 1.2.1 (UTC 2008-12-04)
    Аудио
    Идентификатор : 1
    Формат : MPEG Audio
    Версия формата : Version 1
    Профиль формата : Layer 3
    Идентификатор кодека : 55
    Идентификатор кодека/Подсказка : MP3
    Продолжительность : 1 ч. 32 м.
    Вид битрейта : Постоянный
    Битрейт : 128 Кбит/сек
    Каналы : 2 канала
    Частота : 48,0 КГц
    Метод сжатия : С потерями
    Размер потока : 84,6 Мбайт (11%)
    Выравнивание : Соединение по промежуткам
    Продолжительность промежутка : 42 мс. (1,00 видеокадр)
    Время предзагрузки промежутка : 504 мс.
    Библиотека кодирования : LAME3.99r
    Настройки программы : -m s -V 4 -q 2 -lowpass 17 -b 128

    Скриншот c названием фильма

    Скриншоты

    Скачать .torrent

    Скачать торрент-файл бесплатно и на максимальной скорости!

    Как скачивать? · Что такое торрент? · Рейтинг и ограничения

    !ВНИМАНИЕ!
    Сайт не распространяет и не хранит электронные версии произведений, а занимается лишь лишь предоставлением доступа к создаваемому пользователями каталогу ссылок на торрент-файлы, которые содержат только списки хеш-сумм, убедительная просьба с жалобами обращаться напрямую к пользователю. Файлы для обмена на трекере предоставлены пользователями сайта, и администрация не несёт ответственности за их содержание. Просьба не заливать файлы, защищенные авторскими правами, а также файлы нелегального содержания!

    [Профиль] [ЛС]
    Показать сообщения:    
    Ответить на тему

    Текущее время: Сегодня, в 06:48

    Часовой пояс: GMT + 2



    Вы не можете начинать темы
    Вы не можете отвечать на сообщения
    Вы не можете редактировать свои сообщения
    Вы не можете удалять свои сообщения
    Вы не можете голосовать в опросах
    Вы не можете прикреплять файлы к сообщениям
    Вы не можете скачивать файлы