BitTorrentTracker PerecTracker.org
BitTorrentTracker PerecTracker.org
    
Регистрация  ·  Вход
 
 · 
Забыли пароль?

  • Рыбология / Fish Hooks / Сезон: 1 / Серии: 1-21 из 21 (Уильям Рейсс, Карл Х. Гринблатт, Максвелл Атомс / William Reiss C. H. Green Maxwell Atoms) [2010-2011, Комедия, WEBRip 480p] Dub

    Ответить на тему
     
    Автор Сообщение

    Columb

    Создавать темы 29-Дек-2014 16:17

           

    [Цитировать]

    Рыбология / Fish Hooks
    Страна: США
    Жанр: Комедия
    Продолжительность: 00:21:51
    Год выпуска: 2010-2011
    Перевод: Профессиональный (дублированный)
    Русские субтитры: нет
    Режиссёр: Уильям Рейсс, Карл Х. Гринблатт, Максвелл Атомс / William Reiss C. H. Green Maxwell Atoms
    Описание: «Рыбология» — комедийный мультсериал, созданный с применением цифровой анимации и техники фотоколлажа. В центре сюжета — увлекательные истории о трех лучших друзьях рыбках, Би, Майло и Оскаре, обитателях аквариума в зоомагазине. Здесь они ходят в школу, занимаются спортом, играют и сталкиваются с теми же жизненными обстоятельствами, что и их человеческие сверстники. Но порой их ждут совершенно необычные ситуации, как, например, атака гигантского лобстера или школьная экскурсия к клетке хомяка. Титульную песню к веселому мультсериалу о жизни рыбок-старшеклассников исполнила группа «Дискотека Авария».

    Список серий

    Би ничто не остановит/ Жизнь за периметром - Серия 1, Сезон 1
    Вечеринка с ночевкой/ Подарок Джоктупоса - Серия 2, Сезон 1
    Дворис Полис Хлорис/ Водонос - Серия 3, Сезон 1
    Би становится взрослой/ Собачья жизнь - Серия 4, Сезон 1
    Отстал от стаи/ Рыбка с улыбкой - Серия 5, Сезон 1
    Королева танцев/ Балдуин – супер-рыба - Серия 6, Сезон 1
    Майло знакомится с ниндзя/ Танцы с рыбоволками - Серия 7, Сезон 1
    Да здравствует Грызвуд/ Сказка о сэре Оскаре Великолепном - Серия 8, Сезон 1
    Как напроситься на комплимент: история Альберта Гласса/ Водянка! - Серия 9, Сезон 1
    Рыбка-великан/ Темная сторона рыбы - Серия 10, Сезон 1
    Парадная платформа/ Деньги и рыбки - Серия 11, Сезон 1
    Летающая рыбка/ Легенда о земляном тролле - Серия 12, Сезон 1
    Мы сильные духом. Части 1 и 2 - Серия 13, Сезон 1
    Влюбленные ракушки/ В поисках приключений - Серия 14, Сезон 1
    Возвращение Памелы Грызуньи/ Боязнь паразитов - Серия 15, Сезон 1
    Клёвая поездка/ Майло осенило - Серия 16, Сезон 1
    С добрым утром, школа чистой воды!/ Дневник потерянной рыбки Серия 17, Сезон 1
    Беги, Оскар, беги/ Талисмания величия - Серия 18, Сезон 1
    Аттракцион в парке аттракционов/ Блестящая пародия - Серия 19, Сезон 1
    Конкурс рыбьих талантов/ Скидка для своих - Серия 20, Сезон 1
    Мюзикл в рыбьей школе. Части 1 и 2 - Серия 21, Сезон 1
    Доп. информация: Впервые руссифицированный видеоряд в 16:9
    Семпл: https://yadi.sk/i/j_ThkdF4dg9Rt
    Качество: WEBRip
    Формат: MP4
    Видео: 854x480, 550 kbps, 25 fps ,0.057 bit/pixel
    Аудио: 44.1 kHz, AAC 2/0 (L,R) ch, ~126 kbps
    Субтитры: Отсутствуют

    Подробные технические данные

    ВидеоИдентификатор : 1Формат : AVCФормат/Информация : Advanced Video CodecПрофиль формата : Main@L3.0Параметр CABAC формата : ДаПараметр ReFrames формата : 3 кадраИдентификатор кодека : avc1Идентификатор кодека/Информация : Advanced Video CodingПродолжительность : 21 м.Duration_FirstFrame : -40 мс.Битрейт : 554 Кбит/секШирина : 854 пикселяВысота : 480 пикселейСоотношение сторон : 16:9Режим частоты кадров : ПеременныйЧастота кадров : 25,000 кадров/секМинимальная частота кадров : 25,000 кадров/секМаксимальная частота кадров : 25,014 кадров/секЦветовое пространство : YUVСубдискретизация насыщенности : 4:2:0Битовая глубина : 8 битТип развёртки : ПрогрессивнаяБит/(Пиксели*Кадры) : 0.054Размер потока : 86,6 Мбайт (81%)
    АудиоИдентификатор : 2Формат : AACФормат/Информация : Advanced Audio CodecПрофиль формата : LCИдентификатор кодека : 40Продолжительность : 21 м.Вид битрейта : ПостоянныйБитрейт : 126 Кбит/секКаналы : 2 каналаРасположение каналов : Front: L RЧастота : 44,1 КГцМетод сжатия : С потерямиРазмер потока : 19,6 Мбайт (18%)

    Скриншоты

    Скачать .torrent

    Скачать торрент-файл бесплатно и на максимальной скорости!

    Как скачивать? · Что такое торрент? · Рейтинг и ограничения

    !ВНИМАНИЕ!
    Сайт не распространяет и не хранит электронные версии произведений, а занимается лишь лишь предоставлением доступа к создаваемому пользователями каталогу ссылок на торрент-файлы, которые содержат только списки хеш-сумм, убедительная просьба с жалобами обращаться напрямую к пользователю. Файлы для обмена на трекере предоставлены пользователями сайта, и администрация не несёт ответственности за их содержание. Просьба не заливать файлы, защищенные авторскими правами, а также файлы нелегального содержания!

    [Профиль] [ЛС]
    Показать сообщения:    
    Ответить на тему

    Текущее время: Сегодня, в 08:15

    Часовой пояс: GMT + 2



    Вы не можете начинать темы
    Вы не можете отвечать на сообщения
    Вы не можете редактировать свои сообщения
    Вы не можете удалять свои сообщения
    Вы не можете голосовать в опросах
    Вы не можете прикреплять файлы к сообщениям
    Вы не можете скачивать файлы