BitTorrentTracker PerecTracker.org
BitTorrentTracker PerecTracker.org
    
Регистрация  ·  Вход
 
 · 
Забыли пароль?

  • Властелин колец: Возвращение короля / The Lord of the Rings: The Return of the King (Питер Джексон / Peter Jackson) [2003, Фэнтези, Приключения, HDRip] [Режиссерская версия / Extended Edition] Dub + MVO + Original + Sub rus, eng

    Ответить на тему
     
    Автор Сообщение

    -sasha2006

    Создавать темы 22-Фев-2013 15:58

           

    [Цитировать]

    Властелин колец: Возвращение короля / The Lord of the Rings: The Return of the King
    Режиссерская версия / Extended Edition

    Слоган: "There can be no triumph without loss. No victory without suffering. No freedom without sacrifice"
    -Страна: США , Новая Зеландия
    Жанр: Фэнтези, Приключения
    Год выпуска: 2003
    Продолжительность: 04:23:09
    -Перевод: Профессиональный (полное дублирование) + вставки многоголосого перевода Позитив ММ на расширенные места
    Оригинальная аудиодорожка: Английский (отдельно)
    Cубтитры: Русские Позитив ММ (отдельно), Русские Henneth-annun (отдельно), Английские (отдельно)-Режиссер: Питер Джексон / Peter Jackson-В ролях: Элайджа Вуд / Elijah Wood, Вигго Мортенсен / Viggo Mortensen, Шон Эстин / Sean Astin, Иэн МакКеллен / Ian McKellen, Орландо Блум / Orlando Bloom, Доминик Монахэн / Dominic Monaghan, Билли Бойд / Billy Boyd, Энди Серкис / Andy Serkis, Миранда Отто / Miranda Otto, Лив Тайлер / Liv Tyler, Карл Урбан / Karl Urban, Дэвид Уэнэм / David Wenham, Хьюго Уивинг / Hugo Weaving, Кейт Бланшетт / Cate Blanchett и др.-Описание:
    Последняя часть трилогии о Кольце Всевластия и о героях, взявших на себя бремя спасения Средиземья. Повелитель сил Тьмы Саурон направляет свои бесчисленные рати под стены Минас-Тирита, крепости Последней Надежды. Он предвкушает близкую победу, но именно это и мешает ему заметить две крохотные фигурки — хоббитов, приближающихся к Роковой Горе, где им предстоит уничтожить Кольцо Всевластия. Улыбнется ли им счастье?
    - -Качество видео: HDRip - BDRip 1080p
    Формат видео: AVI-Видео: XviD / 720x304 / 2.40:1 / 1376 kbps / 23.976 fps / 0.262 bit/pixel
    Аудио #1: Dub / AC3 Dolby Digital / 48 KHz / 192 kbps / 2/0 (L,R) ch
    Аудио #2: Original / AC3 Dolby Digital / 48 KHz / 192 kbps / 2/0 (L,R) ch (отдельно)
    Формат субтитров: softsub (SRT)-

    Сэмпл

    http://narod.ru/disk/61992967001.d901bfa9ead585d253b44c9249dcabcc/LOTR3%20(SAMPLE).avi.html
    -

    MediaInfo

    General
    Complete name : ...\Властелин колец. Возвращение короля\Vlastelin.kolec.Vozvraschenie.korolya.2003.RUS.BDRip.XviD.AC3.avi
    Format : AVI
    Format/Info : Audio Video Interleave
    Format profile : OpenDML
    File size : 2.90 GiB
    Duration : 4h 23mn
    Overall bit rate : 1 579 Kbps
    Writing application : VirtualDubMod 1.5.10.2 (build 2540/release)
    Writing library : VirtualDubMod build 2540/release
    Video
    ID : 0
    Format : MPEG-4 Visual
    Format profile : Advanced Simple@L5
    Format settings, BVOP : 2
    Format settings, QPel : No
    Format settings, GMC : No warppoints
    Format settings, Matrix : Default (MPEG)
    Codec ID : XVID
    Codec ID/Hint : XviD
    Duration : 4h 23mn
    Bit rate : 1 376 Kbps
    Width : 720 pixels
    Height : 304 pixels
    Display aspect ratio : 2.40:1
    Frame rate : 23.976 fps
    Color space : YUV
    Chroma subsampling : 4:2:0
    Bit depth : 8 bits
    Scan type : Progressive
    Compression mode : Lossy
    Bits/(Pixel*Frame) : 0.262
    Stream size : 2.53 GiB (87%)
    Writing library : XviD 1.2.1 (UTC 2008-12-04)
    Audio
    ID : 1
    Format : AC-3
    Format/Info : Audio Coding 3
    Mode extension : CM (complete main)
    Format settings, Endianness : Big
    Codec ID : 2000
    Duration : 4h 23mn
    Bit rate mode : Constant
    Bit rate : 192 Kbps
    Channel(s) : 2 channels
    Channel positions : Front: L R
    Sampling rate : 48.0 KHz
    Bit depth : 16 bits
    Compression mode : Lossy
    Stream size : 361 MiB (12%)
    Alignment : Split accross interleaves
    Interleave, duration : 42 ms (1.00 video frame)
    Interleave, preload duration : 500 ms

    Скриншоты


    Скачать .torrent

    Скачать торрент-файл бесплатно и на максимальной скорости!

    Как скачивать? · Что такое торрент? · Рейтинг и ограничения

    !ВНИМАНИЕ!
    Сайт не распространяет и не хранит электронные версии произведений, а занимается лишь лишь предоставлением доступа к создаваемому пользователями каталогу ссылок на торрент-файлы, которые содержат только списки хеш-сумм, убедительная просьба с жалобами обращаться напрямую к пользователю. Файлы для обмена на трекере предоставлены пользователями сайта, и администрация не несёт ответственности за их содержание. Просьба не заливать файлы, защищенные авторскими правами, а также файлы нелегального содержания!


    _________________

    ░▒▓█▀▄▀▄▀▄█▓▒░
    [Профиль] [ЛС]
    Показать сообщения:    
    Ответить на тему

    Текущее время: Сегодня, в 02:54

    Часовой пояс: GMT + 2



    Вы не можете начинать темы
    Вы не можете отвечать на сообщения
    Вы не можете редактировать свои сообщения
    Вы не можете удалять свои сообщения
    Вы не можете голосовать в опросах
    Вы не можете прикреплять файлы к сообщениям
    Вы не можете скачивать файлы