BitTorrentTracker PerecTracker.org
BitTorrentTracker PerecTracker.org
    
Регистрация  ·  Вход
 
 · 
Забыли пароль?

  • Карты, деньги, два ствола / Lock, Stock and Two Smoking Barrels (Гай Ричи / Guy Ritchie) [1998, триллер, криминал, комедия..., BDRip] AVO Гоблин + AVO Сербин

    Ответить на тему
     
    Автор Сообщение

    -sasha2006

    Создавать темы 22-Фев-2013 15:38

           

    [Цитировать]

    Карты, деньги, два ствола / Lock, Stock and Two Smoking Barrels-Страна: Великобритания
    Жанр: триллер, криминал, комедия...
    Год выпуска: 1998
    Продолжительность: 01:47:23-Перевод 1: Авторский (одноголосый закадровый) (Гоблин)
    Перевод 2: Авторский (одноголосый закадровый) (Сербин)
    Cубтитры: нет
    Режиссер: Гай Ричи / Guy Ritchie-В ролях:
    Джейсон Стэйтем, Ник Моран, Джейсон Флеминг, Декстер Флетчер, Винни Джонс, Стинг, Стивен Макинтош, Николас Роу, Ник Марк, Чарльз Форбс-Описание:
    Четверо молодых парней накопили каждый по 25 тысяч фунтов, чтобы один из них мог сыграть в карты с опытным шулером и матерым преступником, известным по кличке Гарри-Топор. Парень в итоге проиграл 500 тысяч, на уплату долга ему дали неделю.
    В противном случае и ему и его «спонсорам» каждый день будут отрубать по пальцу, а потом… Чтобы выйти из положения, ребята решили ограбить бандитов, решивших ограбить трех «ботаников», выращивающих марихуану для местного наркобарона. Но на этом приключения четверки не заканчиваются…
    --Качество видео: BDRip
    Исходник: Blu-ray-Формат видео: AVI
    Видео: XviD, 704x384, 1557 kbps, 23,976 fps
    Аудио 1: AC-3, 6ch, 384 kbps, 48 kHz
    Аудио 2: AC-3, 6ch, 384 kbps, 48 kHz Сербин |Отдельно|

    MediaInfo

    Общее
    Полное имя : H:\Карты, деньги\L.S.T.S.B.BDRip.cw.avi
    Формат : AVI
    Формат/Информация : Audio Video Interleave
    Размер файла : 1,46 Гбайт
    Продолжительность : 1 ч. 47 м.
    Общий поток : 1950 Кбит/сек
    Программа кодирования : VirtualDubModRus 1.5.10.2 (build 2542/release)
    Библиотека кодирования : VirtualDubMod build 2542/release
    Примечание : CW
    Видео
    Идентификатор : 0
    Формат : MPEG-4 Visual
    Профиль формата : Advanced Simple@L5
    Параметр BVOP формата : 1
    Параметр QPel формата : Нет
    Параметр GMC формата : Без точки перехода
    Параметр матрицы формата : Выборочная
    Идентификатор кодека : XVID
    Идентификатор кодека/Подсказка : XviD
    Продолжительность : 1 ч. 47 м.
    Битрейт : 1557 Кбит/сек
    Ширина : 704 пикселя
    Высота : 384 пикселя
    Соотношение сторон : 1,85:1
    Частота кадров : 23,976 кадра/сек
    Цветовое пространство : YUV
    Субдискретизация насыщенности : 4:2:0
    Битовая глубина : 8 бит
    Тип развёртки : Прогрессивная
    Метод сжатия : С потерями
    Бит/(Пиксели*Кадры) : 0.240
    Размер потока : 1,17 Гбайт (80%)
    Библиотека кодирования : XviD 1.2.1 (UTC 2008-12-04)
    Аудио
    Идентификатор : 1
    Формат : AC-3
    Формат/Информация : Audio Coding 3
    Расширение режима : CM (complete main)
    Параметр Endianness формата : Big
    Идентификатор кодека : 2000
    Продолжительность : 1 ч. 47 м.
    Вид битрейта : Постоянный
    Битрейт : 384 Кбит/сек
    Каналы : 6 каналов
    Расположение каналов : Front: L C R, Side: L R, LFE
    Частота : 48,0 КГц
    Битовая глубина : 16 бит
    Метод сжатия : С потерями
    Размер потока : 295 Мбайт (20%)
    Выравнивание : Разделение по промежуткам
    Продолжительность промежутка : 42 мс. (1,00 видеокадр)
    Время предзагрузки промежутка : 500 мс.

    Скриншоты

    Скачать .torrent

    Скачать торрент-файл бесплатно и на максимальной скорости!

    Как скачивать? · Что такое торрент? · Рейтинг и ограничения

    !ВНИМАНИЕ!
    Сайт не распространяет и не хранит электронные версии произведений, а занимается лишь лишь предоставлением доступа к создаваемому пользователями каталогу ссылок на торрент-файлы, которые содержат только списки хеш-сумм, убедительная просьба с жалобами обращаться напрямую к пользователю. Файлы для обмена на трекере предоставлены пользователями сайта, и администрация не несёт ответственности за их содержание. Просьба не заливать файлы, защищенные авторскими правами, а также файлы нелегального содержания!


    _________________

    ░▒▓█▀▄▀▄▀▄█▓▒░
    [Профиль] [ЛС]
    Показать сообщения:    
    Ответить на тему

    Текущее время: Сегодня, в 10:40

    Часовой пояс: GMT + 2



    Вы не можете начинать темы
    Вы не можете отвечать на сообщения
    Вы не можете редактировать свои сообщения
    Вы не можете удалять свои сообщения
    Вы не можете голосовать в опросах
    Вы не можете прикреплять файлы к сообщениям
    Вы не можете скачивать файлы