BitTorrentTracker PerecTracker.org
BitTorrentTracker PerecTracker.org
    
Регистрация  ·  Вход
 
 · 
Забыли пароль?

  • Исчезнувшая / Gone Girl (2014) BDRip 1080p

    Ответить на тему
     
    Автор Сообщение

    Columb

    Создавать темы 27-Дек-2014 13:55

           

    [Цитировать]


    Информация о фильме
    Название: Исчезнувшая
    Оригинальное название: Gone Girl
    Год выхода: 2014
    Жанр: Триллер, драма, детектив
    Режиссер: Дэвид Финчер
    В ролях: Розамунд Пайк, Бен Аффлек, Нил Патрик Харрис, Мисси Пайл, Скут МакНэйри, Кэрри Кун, Тайлер Перри, Ли Норрис, Бойд Холбрук, Патрик Фьюджит, Эмили Ратажковски, Кейси Уилсон, Лола Керк, Дэвид Кленнон
    О фильме:
    Все было готово для празднования пятилетнего юбилея супружеской жизни, когда вдруг необъяснимо пропал один из виновников торжества. Остались следы борьбы в доме, кровь, которую явно пытались стереть, - и цепочка «ключей» в игре под названием «охота за сокровищами»; красивая, умная и невероятно изобретательная жена ежегодно устраивала ее для своего обожаемого мужа. И похоже, что эти «ключи» - размещенные ею тут и там странные записки и не менее странные безделушки - дают единственный шанс пролить свет на судьбу исчезнувшей. Вот только не придется ли «охотнику» в процессе поиска раскрыть миру и пару-тройку собственных малосимпатичных тайн?

    Страна: США
    Студия: Artemple - Hollywood, New Regency Pictures, Pacific Standard, Regency Enterprises
    Продолжительность: 02:29:01
    Перевод: Дублированный, авторский
    Кодек: x264
    Качество: BDRip 1080p
    Видео: MPEG-4 AVC, 6000 Кбит/с, 1920x800, 23.976 кадр/с
    Звук:
    Аудио #1: Русский (AC3, 6 ch, 448 Кбит/с) / Дублированный (Blu-ray EUR)
    Аудио #2: Русский (AC3, 6 ch, 448 Кбит/с) / Авторский одноголосый (Алексей Матвеев)
    Аудио #3: Украинский (AC3, 6 ch, 448 Кбит/с) / Дублированный (Blu-ray EUR)
    Аудио #4: Английский (AC3, 6 ch, 448 Кбит/с)
    Субтитры: Русские (Forced, Blu-ray, MartinaG), украинские (Forced, Blu-ray), английские (Full х 2, SDH)
    Семпл

    Log x264

    raw [info]: 1920x800p 1:1 @ 24000/1001 fps (cfr)
    x264 [info]: using SAR=1/1
    x264 [info]: using cpu capabilities: MMX2 SSE2Fast SSSE3 SSE4.2 AVX AVX2 FMA3 LZCNT BMI2
    x264 [info]: profile High, level 4.1
    x264 [info]: frame I:2080 Avg QP:14.54 size:210511
    x264 [info]: frame P:55081 Avg QP:16.76 size: 59347
    x264 [info]: frame B:157231 Avg QP:17.96 size: 19022
    x264 [info]: consecutive B-frames: 2.1% 3.5% 33.3% 14.4% 14.5% 28.4% 2.2% 0.7% 0.2% 0.3% 0.4%
    x264 [info]: mb I I16..4: 20.3% 66.8% 12.9%
    x264 [info]: mb P I16..4: 0.9% 6.5% 0.4% P16..4: 36.2% 34.4% 10.6% 1.7% 0.1% skip: 9.1%
    x264 [info]: mb B I16..4: 0.1% 0.4% 0.0% B16..8: 31.6% 15.7% 2.2% direct: 6.4% skip:43.5% L0:44.8% L1:46.9% BI: 8.4%
    x264 [info]: 8x8 transform intra:78.0% inter:54.1%
    x264 [info]: direct mvs spatial:98.6% temporal:1.4%
    x264 [info]: coded y,uvDC,uvAC intra: 90.1% 91.2% 80.9% inter: 19.0% 31.7% 22.3%
    x264 [info]: i16 v,h,dc,p: 14% 8% 23% 56%
    x264 [info]: i8 v,h,dc,ddl,ddr,vr,hd,vl,hu: 10% 8% 9% 10% 12% 13% 12% 13% 13%
    x264 [info]: i4 v,h,dc,ddl,ddr,vr,hd,vl,hu: 14% 9% 6% 9% 14% 14% 12% 11% 11%
    x264 [info]: i8c dc,h,v,p: 54% 15% 15% 17%
    x264 [info]: Weighted P-Frames: Y:5.0% UV:3.4%
    x264 [info]: ref P L0: 48.9% 5.1% 26.0% 7.7% 8.8% 3.3% 0.1%
    x264 [info]: ref B L0: 67.4% 22.8% 6.9% 2.9%
    x264 [info]: ref B L1: 91.3% 8.7%
    x264 [info]: kb/s:5992.14
    encoded 214392 frames, 1.37 fps, 5992.14 kb/s

    MI

    General
    Unique ID : 231987835117584863688358655315355590120 (0xAE873B59C726A1EF87EEA7F156B35DE8)
    Complete name : Gone.Girl.2014.BDRip.1080p.MediaClub.mkv
    Format : Matroska
    Format version : Version 4 / Version 2
    File size : 8.11 GiB
    Duration : 2h 29mn
    Overall bit rate : 7 788 Kbps
    Movie name : release MediaClub - MINION
    Encoded date : UTC 2014-12-25 08:39:03
    Writing application : mkvmerge v7.4.0 ('Circles') 64bit built on Dec 12 2014 12:19:56
    Writing library : libebml v1.3.0 + libmatroska v1.4.1
    DURATION : 02:24:10.066000000
    NUMBER_OF_FRAMES : 2735
    NUMBER_OF_BYTES : 89332
    _STATISTICS_WRITING_APP : mkvmerge v7.4.0 ('Circles') 64bit built on Dec 12 2014 12:19:56
    _STATISTICS_WRITING_DATE_UTC : 2014-12-25 08:39:03
    _STATISTICS_TAGS : BPS DURATION NUMBER_OF_FRAMES NUMBER_OF_BYTES
    Video
    ID : 1
    Format : AVC
    Format/Info : Advanced Video Codec
    Format profile : High@L4.1
    Format settings, CABAC : Yes
    Format settings, ReFrames : 5 frames
    Codec ID : V_MPEG4/ISO/AVC
    Duration : 2h 29mn
    Bit rate : 6 000 Kbps
    Width : 1 920 pixels
    Height : 800 pixels
    Display aspect ratio : 2.40:1
    Frame rate mode : Constant
    Frame rate : 23.976 fps
    Color space : YUV
    Chroma subsampling : 4:2:0
    Bit depth : 8 bits
    Scan type : Progressive
    Bits/(Pixel*Frame) : 0.163
    Stream size : 6.08 GiB (75%)
    Title : Gone Girl 2014 BDRip 1080p - [MediaClub, by MINION]
    Writing library : x264 core 142 r2431 ac76440
    Encoding settings : cabac=1 / ref=5 / deblock=1:-3:-3 / analyse=0x3:0x133 / me=tesa / subme=11 / psy=1 / psy_rd=1.00:0.10 / mixed_ref=1 / me_range=48 / chroma_me=1 / trellis=2 / 8x8dct=1 / cqm=0 / deadzone=21,11 / fast_pskip=0 / chroma_qp_offset=-3 / threads=6 / lookahead_threads=1 / sliced_threads=0 / nr=0 / decimate=0 / interlaced=0 / bluray_compat=0 / constrained_intra=0 / bframes=10 / b_pyramid=2 / b_adapt=2 / b_bias=0 / direct=3 / weightb=1 / open_gop=0 / weightp=2 / keyint=240 / keyint_min=23 / scenecut=40 / intra_refresh=0 / rc=2pass / mbtree=0 / bitrate=6000 / ratetol=1.0 / qcomp=0.60 / qpmin=10 / qpmax=51 / qpstep=4 / cplxblur=20.0 / qblur=0.5 / ip_ratio=1.40 / pb_ratio=1.30 / aq=1:1.00
    Language : English
    Default : Yes
    Forced : No
    DURATION : 02:29:01.933000000
    NUMBER_OF_FRAMES : 214392
    NUMBER_OF_BYTES : 6697662596
    _STATISTICS_WRITING_APP : mkvmerge v7.4.0 ('Circles') 64bit built on Dec 12 2014 12:19:56
    _STATISTICS_WRITING_DATE_UTC : 2014-12-25 08:39:03
    _STATISTICS_TAGS : BPS DURATION NUMBER_OF_FRAMES NUMBER_OF_BYTES
    Audio #1
    ID : 2
    Format : AC-3
    Format/Info : Audio Coding 3
    Mode extension : CM (complete main)
    Format settings, Endianness : Big
    Codec ID : A_AC3
    Duration : 2h 29mn
    Bit rate mode : Constant
    Bit rate : 448 Kbps
    Channel(s) : 6 channels
    Channel positions : Front: L C R, Side: L R, LFE
    Sampling rate : 48.0 KHz
    Bit depth : 16 bits
    Compression mode : Lossy
    Stream size : 478 MiB (6%)
    Title : DUB- Blu-ray EUR
    Language : Russian
    Default : Yes
    Forced : No
    Audio #2
    ID : 3
    Format : AC-3
    Format/Info : Audio Coding 3
    Mode extension : CM (complete main)
    Format settings, Endianness : Big
    Codec ID : A_AC3
    Duration : 2h 29mn
    Bit rate mode : Constant
    Bit rate : 448 Kbps
    Channel(s) : 6 channels
    Channel positions : Front: L C R, Side: L R, LFE
    Sampling rate : 48.0 KHz
    Bit depth : 16 bits
    Compression mode : Lossy
    Stream size : 478 MiB (6%)
    Title : AVO - Алексей Матвеев
    Language : Russian
    Default : No
    Forced : No
    Audio #3
    ID : 4
    Format : AC-3
    Format/Info : Audio Coding 3
    Mode extension : CM (complete main)
    Format settings, Endianness : Big
    Codec ID : A_AC3
    Duration : 2h 29mn
    Bit rate mode : Constant
    Bit rate : 448 Kbps
    Channel(s) : 6 channels
    Channel positions : Front: L C R, Side: L R, LFE
    Sampling rate : 48.0 KHz
    Bit depth : 16 bits
    Compression mode : Lossy
    Stream size : 478 MiB (6%)
    Title : DUB- Blu-ray EUR
    Language : Ukrainian
    Default : No
    Forced : No
    Audio #4
    ID : 5
    Format : AC-3
    Format/Info : Audio Coding 3
    Mode extension : CM (complete main)
    Format settings, Endianness : Big
    Codec ID : A_AC3
    Duration : 2h 29mn
    Bit rate mode : Constant
    Bit rate : 448 Kbps
    Channel(s) : 6 channels
    Channel positions : Front: L C R, Side: L R, LFE
    Sampling rate : 48.0 KHz
    Bit depth : 16 bits
    Compression mode : Lossy
    Stream size : 478 MiB (6%)
    Language : English
    Default : No
    Forced : No
    Text #1
    ID : 6
    Format : UTF-8
    Codec ID : S_TEXT/UTF8
    Codec ID/Info : UTF-8 Plain Text
    Title : Forced
    Language : Russian
    Default : Yes
    Forced : No
    Text #2
    ID : 7
    Format : UTF-8
    Codec ID : S_TEXT/UTF8
    Codec ID/Info : UTF-8 Plain Text
    Title : Blu-ray - (Геннадий Панин)
    Language : Russian
    Default : No
    Forced : No
    Text #3
    ID : 8
    Format : UTF-8
    Codec ID : S_TEXT/UTF8
    Codec ID/Info : UTF-8 Plain Text
    Title : Full - (MartinaG)
    Language : Russian
    Default : No
    Forced : No
    Text #4
    ID : 9
    Format : UTF-8
    Codec ID : S_TEXT/UTF8
    Codec ID/Info : UTF-8 Plain Text
    Title : Forced
    Language : Ukrainian
    Default : No
    Forced : No
    Text #5
    ID : 10
    Format : UTF-8
    Codec ID : S_TEXT/UTF8
    Codec ID/Info : UTF-8 Plain Text
    Title : Blu-ray - (Владислав Бурмистров, DеIuхе)
    Language : Ukrainian
    Default : No
    Forced : No
    Text #6
    ID : 11
    Format : UTF-8
    Codec ID : S_TEXT/UTF8
    Codec ID/Info : UTF-8 Plain Text
    Title : Full-1
    Language : English
    Default : No
    Forced : No
    Text #7
    ID : 12
    Format : UTF-8
    Codec ID : S_TEXT/UTF8
    Codec ID/Info : UTF-8 Plain Text
    Title : Full-2
    Language : English
    Default : No
    Forced : No
    Text #8
    ID : 13
    Format : UTF-8
    Codec ID : S_TEXT/UTF8
    Codec ID/Info : UTF-8 Plain Text
    Title : SDH
    Language : English
    Default : No
    Forced : No
    Menu
    00:00:00.000 : en:Cracking Her Lovely Skull
    00:03:27.958 : en:Crazy Stupid Happy
    00:06:57.834 : en:Protect Your Nuts
    00:08:19.541 : en:Empty House
    00:11:58.593 : en:Amazing Fucking Amy
    00:15:01.484 : en:Elimination Prints
    00:18:13.509 : en:Mr. Brown
    00:19:56.737 : en:Hard Work
    00:21:43.093 : en:Code For Bitch
    00:23:53.849 : en:One Day Gone
    00:28:34.880 : en:Tight Spot
    00:31:32.516 : en:Weak Spots
    00:34:39.077 : en:Two Days Gone
    00:40:51.199 : en:Strange New Sentence
    00:44:37.383 : en:Undone Husband
    00:46:57.815 : en:Bum World
    00:49:19.707 : en:Picked Apart By Women / Three days Gone
    00:54:13.333 : en:Vigil
    01:00:06.686 : en:Little Box Of Hate
    01:03:16.209 : en:Showcase Showdown
    01:06:08.715 : en:Cool Girl
    01:12:56.998 : en:Goodies For Five
    01:15:13.008 : en:Queen Of The Ozarks
    01:19:54.456 : en:Tanner Bolt
    01:21:56.120 : en:Annexation
    01:27:24.156 : en:Change Of Plans
    01:28:12.537 : en:Old Flame Out
    01:33:28.561 : en:Bull Sharks
    01:39:34.510 : en:Plan C
    01:46:26.714 : en:Gilded Cage
    01:50:46.515 : en:Audience Of One
    01:56:40.619 : en:Blood Is Stronger Than Fire
    01:59:06.097 : en:Predation
    02:02:23.127 : en:Red In Tooth And Claw
    02:05:35.069 : en:Reunion
    02:12:30.818 : en:The Pain Upstairs
    02:16:12.790 : en:Spider Sweetheart
    02:19:56.930 : en:Love Tests
    02:22:42.304 : en:Partners In Crime
    02:24:15.647 : en:What Will We Do? / End Credits

    Скриншоты

    Релиз от: |
    Скачать .torrent

    Скачать торрент-файл бесплатно и на максимальной скорости!

    Как скачивать? · Что такое торрент? · Рейтинг и ограничения

    !ВНИМАНИЕ!
    Сайт не распространяет и не хранит электронные версии произведений, а занимается лишь лишь предоставлением доступа к создаваемому пользователями каталогу ссылок на торрент-файлы, которые содержат только списки хеш-сумм, убедительная просьба с жалобами обращаться напрямую к пользователю. Файлы для обмена на трекере предоставлены пользователями сайта, и администрация не несёт ответственности за их содержание. Просьба не заливать файлы, защищенные авторскими правами, а также файлы нелегального содержания!

    [Профиль] [ЛС]
    Показать сообщения:    
    Ответить на тему

    Текущее время: Сегодня, в 16:13

    Часовой пояс: GMT + 2



    Вы не можете начинать темы
    Вы не можете отвечать на сообщения
    Вы не можете редактировать свои сообщения
    Вы не можете удалять свои сообщения
    Вы не можете голосовать в опросах
    Вы не можете прикреплять файлы к сообщениям
    Вы не можете скачивать файлы