BitTorrentTracker PerecTracker.org
BitTorrentTracker PerecTracker.org
    
Регистрация  ·  Вход
 
 · 
Забыли пароль?

  • Никаких добрых дел / No Good Deed (2014) BDRip-AVC от MediaClub | P | iTunes

    Ответить на тему
     
    Автор Сообщение

    Columb

    Создавать темы 27-Дек-2014 13:52

           

    [Цитировать]


    Информация о фильме
    Название: Никаких добрых дел
    Оригинальное название: No Good Deed
    Год выпуска: 2014
    Жанр: Триллер, криминал
    Режиссер: Сэм Миллер
    В ролях: Идрис Эльба, Тараджи П. Хенсон, Лесли Бибб, Кейт дель Кастильо, Генри Симмонс, Кенни Альфонсо, Дэн Кодилл, Татом Пендер, Келли О’Нил
    Описание: Главная героиня картины не один год проработала в правовой системе. Будучи прокурором она в течение нескольких лет вынуждена была общаться с самыми разнообразными преступниками и наблюдать самые темные стороны человеческой натуры. Но в конце концов, ее терпению приходит конец и женщина решает завершить свою блистательную карьеру. Теперь она обычная домохозяйка и это приносит ей намного больше радости, чем ее прежняя работа. Женщина с головой погружается в домашние хлопоты и воспитание своих детей. Но все трагически заканчивается после того, как однажды к ней за помощью обратился незнакомый мужчина, машина которого сломалась недалеко от ее дома. Ее дети оказались похищенными, и теперь только от матери зависит их дальнейшая судьба.

    Выпущено: США / Screen Gems, Will Packer Productions
    Продолжительность: 01:23:53
    Перевод: Профессиональный многоголосый
    Файл
    Качество: BDRip (AVC)
    Видео: MPEG-4 AVC, 2000 Кбит/с, 1024x426, 23.976 кадр/с
    Аудио #1: Русский (AC3, 6 ch, 384 Кбит/с) / Профессиональный многоголосый (iTunes)
    Аудио #2: Английский (AC3, 6 ch, 448 Кбит/с)
    Субтитры: Английские
    Семпл

    Скриншоты

    x264

    x264 [info]: frame I:1300 Avg QP:13.40 size: 68741
    x264 [info]: frame P:25953 Avg QP:16.37 size: 21600
    x264 [info]: frame B:93419 Avg QP:18.69 size: 6514
    x264 [info]: consecutive B-frames: 2.7% 3.2% 7.0% 20.2% 19.0% 29.1% 7.0% 3.8% 2.4% 1.8% 1.1% 1.2% 0.7% 0.6% 0.2%
    x264 [info]: mb I I16..4: 14.8% 57.8% 27.4%
    x264 [info]: mb P I16..4: 0.8% 9.5% 1.9% P16..4: 31.1% 38.7% 14.9% 0.0% 0.0% skip: 3.1%
    x264 [info]: mb B I16..4: 0.0% 0.7% 0.1% B16..8: 36.7% 23.3% 3.8% direct: 4.9% skip:30.5% L0:44.1% L1:43.5% BI:12.4%
    x264 [info]: 8x8 transform intra:73.4% inter:47.1%
    x264 [info]: direct mvs spatial:98.8% temporal:1.2%
    x264 [info]: coded y,uvDC,uvAC intra: 94.5% 80.0% 62.7% inter: 22.0% 14.0% 6.9%
    x264 [info]: i16 v,h,dc,p: 12% 8% 23% 58%
    x264 [info]: i8 v,h,dc,ddl,ddr,vr,hd,vl,hu: 15% 10% 10% 8% 11% 12% 10% 12% 12%
    x264 [info]: i4 v,h,dc,ddl,ddr,vr,hd,vl,hu: 16% 9% 4% 9% 14% 14% 12% 11% 11%
    x264 [info]: i8c dc,h,v,p: 39% 26% 21% 14%
    x264 [info]: Weighted P-Frames: Y:8.1% UV:4.5%
    x264 [info]: ref P L0: 45.7% 7.3% 19.9% 7.2% 6.2% 4.0% 3.8% 2.0% 2.0% 1.6% 0.3% 0.0%
    x264 [info]: ref B L0: 68.9% 14.4% 6.5% 3.5% 2.3% 2.0% 1.5% 0.6% 0.3%
    x264 [info]: ref B L1: 91.7% 8.3%
    x264 [info]: kb/s:2000.32

    MI

    Общее
    Уникальный идентификатор : 219762052169415473349034777739776077056 (0xA554A1B6857F84028353F3253965AD00)
    Полное имя : D:Mои раздачиNikakih.dobryh.del.2014.BDRip.(AVC)-MediaClub.mkv
    Формат : Matroska
    Версия формата : Version 4 / Version 2
    Размер файла : 1,66 Гбайт
    Продолжительность : 1 ч. 23 м.
    Общий поток : 2834 Кбит/сек
    Название фильма : -=MediaClub-kaspr=-
    Дата кодирования : UTC 2014-12-27 04:40:46
    Программа кодирования : mkvmerge v6.9.1 ('Blue Panther') 64bit built on Apr 18 2014 18:23:38
    Библиотека кодирования : libebml v1.3.0 + libmatroska v1.4.1
    Видео
    Идентификатор : 1
    Формат : AVC
    Формат/Информация : Advanced Video Codec
    Профиль формата : High@L4.1
    Параметр CABAC формата : Да
    Параметр ReFrames формата : 10 кадров
    Идентификатор кодека : V_MPEG4/ISO/AVC
    Продолжительность : 1 ч. 23 м.
    Битрейт : 2000 Кбит/сек
    Ширина : 1024 пикселя
    Высота : 426 пикселей
    Соотношение сторон : 2,40:1
    Режим частоты кадров : Постоянный
    Частота кадров : 23,976 кадра/сек
    Цветовое пространство : YUV
    Субдискретизация насыщенности : 4:2:0
    Битовая глубина : 8 бит
    Тип развёртки : Прогрессивная
    Бит/(Пиксели*Кадры) : 0.191
    Размер потока : 1,14 Гбайт (69%)
    Заголовок : -=MediaClub-kaspr=-
    Библиотека кодирования : x264 core 142 r2431+42 c69a006 tMod [8-bit@4:2:0 X86_64]
    Настройки программы : cabac=1 / ref=10 / deblock=1:-3:-3 / analyse=0x3:0x113 / me=umh / subme=11 / psy=1 / fade_compensate=0.00 / psy_rd=1.00:0.20 / mixed_ref=1 / me_range=32 / chroma_me=1 / trellis=2 / 8x8dct=1 / cqm=0 / deadzone=21,11 / fast_pskip=0 / chroma_qp_offset=-3 / threads=12 / lookahead_threads=3 / sliced_threads=0 / nr=0 / decimate=0 / interlaced=0 / bluray_compat=0 / constrained_intra=0 / fgo=0 / bframes=14 / b_pyramid=2 / b_adapt=2 / b_bias=0 / direct=3 / weightb=1 / open_gop=0 / weightp=2 / keyint=240 / keyint_min=23 / scenecut=40 / intra_refresh=0 / rc=2pass / mbtree=0 / bitrate=2000 / ratetol=1.0 / qcomp=0.60 / qpmin=0:0:0 / qpmax=69:69:69 / qpstep=4 / cplxblur=20.0 / qblur=0.5 / ip_ratio=1.40 / pb_ratio=1.30 / aq=4:0.80 / aq-sensitivity=10.00 / aq-factor=1.00:1.00:1.00 / aq2=0 / aq3=0
    Default : Да
    Forced : Нет
    Аудио #1
    Идентификатор : 2
    Формат : AC-3
    Формат/Информация : Audio Coding 3
    Расширение режима : CM (complete main)
    Параметр Endianness формата : Big
    Идентификатор кодека : A_AC3
    Продолжительность : 1 ч. 23 м.
    Вид битрейта : Постоянный
    Битрейт : 384 Кбит/сек
    Каналы : 6 каналов
    Расположение каналов : Front: L C R, Side: L R, LFE
    Частота : 48,0 КГц
    Битовая глубина : 16 бит
    Метод сжатия : С потерями
    Размер потока : 230 Мбайт (14%)
    Заголовок : MVO
    Язык : Russian
    Default : Да
    Forced : Нет
    Аудио #2
    Идентификатор : 3
    Формат : AC-3
    Формат/Информация : Audio Coding 3
    Расширение режима : CM (complete main)
    Параметр Endianness формата : Big
    Идентификатор кодека : A_AC3
    Продолжительность : 1 ч. 23 м.
    Вид битрейта : Постоянный
    Битрейт : 448 Кбит/сек
    Каналы : 6 каналов
    Расположение каналов : Front: L C R, Side: L R, LFE
    Частота : 48,0 КГц
    Битовая глубина : 16 бит
    Метод сжатия : С потерями
    Размер потока : 269 Мбайт (16%)
    Язык : English
    Default : Нет
    Forced : Нет
    Текст
    Идентификатор : 4
    Формат : UTF-8
    Идентификатор кодека : S_TEXT/UTF8
    Идентификатор кодека/Информация : UTF-8 Plain Text
    Язык : English
    Default : Нет
    Forced : Нет
    Меню
    00:00:00.000 : en:Chapter 01
    00:07:43.713 : en:Chapter 02
    00:13:47.993 : en:Chapter 03
    00:18:16.220 : en:Chapter 04
    00:23:17.187 : en:Chapter 05
    00:28:47.684 : en:Chapter 06
    00:32:50.134 : en:Chapter 07
    00:38:17.169 : en:Chapter 08
    00:43:39.450 : en:Chapter 09
    00:47:30.514 : en:Chapter 10
    00:52:32.983 : en:Chapter 11
    00:58:31.007 : en:Chapter 12
    01:03:35.603 : en:Chapter 13
    01:08:52.753 : en:Chapter 14
    01:14:03.397 : en:Chapter 15
    01:19:33.727 : en:Chapter 16
    Релиз: |
    Скачать .torrent

    Скачать торрент-файл бесплатно и на максимальной скорости!

    Как скачивать? · Что такое торрент? · Рейтинг и ограничения

    !ВНИМАНИЕ!
    Сайт не распространяет и не хранит электронные версии произведений, а занимается лишь лишь предоставлением доступа к создаваемому пользователями каталогу ссылок на торрент-файлы, которые содержат только списки хеш-сумм, убедительная просьба с жалобами обращаться напрямую к пользователю. Файлы для обмена на трекере предоставлены пользователями сайта, и администрация не несёт ответственности за их содержание. Просьба не заливать файлы, защищенные авторскими правами, а также файлы нелегального содержания!

    [Профиль] [ЛС]
    Показать сообщения:    
    Ответить на тему

    Текущее время: Сегодня, в 16:18

    Часовой пояс: GMT + 2



    Вы не можете начинать темы
    Вы не можете отвечать на сообщения
    Вы не можете редактировать свои сообщения
    Вы не можете удалять свои сообщения
    Вы не можете голосовать в опросах
    Вы не можете прикреплять файлы к сообщениям
    Вы не можете скачивать файлы