BitTorrentTracker PerecTracker.org
BitTorrentTracker PerecTracker.org
    
Регистрация  ·  Вход
 
 · 
Забыли пароль?

  • Рождество с Холли / Christmas with Holly (Аллан Аркуш / Allan Arkush) [2012, США, Канада, драма, семейный, DVB] MVO (Кириллица)

    Ответить на тему
     
    Автор Сообщение

    Columb

    Создавать темы 26-Дек-2014 20:51

           

    [Цитировать]

    Рождество с Холли / Christmas with Holly-Страна: США, Канада
    Жанр: драма, семейный
    Год выпуска: 2012
    Продолжительность: 00:01:22
    Перевод: Профессиональный (многоголосый закадровый) Студия "Кириллица"
    Cубтитры: нет
    Оригинальная аудиодорожка: нет-Режиссер: Аллан Аркуш / Allan Arkush
    В ролях: Мауралея Остин, Адам Болдуин, Наоми Блэкхолл-Батлер, Дон Боттомли, Катрин Беруб, Тесса Камерон, Вэйд Кэрролл, Доун Кир, Шон Фэрис, Фиона Форсайт...- -Описание: История о девушке Мэгги, которая переезжает в небольшой городок, мечтая открыть собственный магазин игрушек. Здесь она встречает симпатичного парня Марка, владельца кофейни.-Семпл: http://sendfile.su/1066696-Качество видео: DVB
    Формат видео: MKV
    Видео: 720x576 (4:3) @ 768x576, 25.000 fps, MPEG-2 Video, ~2385 Kbps, 0.230 bits/pixel
    Аудио: Русский, 48.0 KHz, MPEG-1 Audio layer 2, 2 ch, 192 Kbps

    MediaInfo

    GeneralComplete name : Christmas with Holly 2012 Disney MVO Kirillitsa.mpgFormat : MPEG-PSFile size : 1.59 GiBDuration : 1h 26mnOverall bit rate mode : VariableOverall bit rate : 2 630 Kbps
    VideoID : 224 (0xE0)Format : MPEG VideoFormat version : Version 2Format profile : Main@MainFormat settings, BVOP : YesFormat settings, Matrix : CustomFormat settings, GOP : VariableFormat settings, picture structure : FrameDuration : 1h 26mnBit rate mode : VariableBit rate : 2 385 KbpsMaximum bit rate : 15.0 MbpsWidth : 720 pixelsHeight : 576 pixelsDisplay aspect ratio : 4:3Frame rate : 25.000 fpsStandard : PALColor space : YUVChroma subsampling : 4:2:0Bit depth : 8 bitsScan type : InterlacedScan order : Top Field FirstCompression mode : LossyBits/(Pixel*Frame) : 0.230Time code of first frame : 00:00:00:00Time code source : Group of pictures headerGOP, Open/Closed : OpenStream size : 1.45 GiB (91%)GOP, Open/Closed of first frame : Closed
    AudioID : 192 (0xC0)Format : MPEG AudioFormat version : Version 1Format profile : Layer 2Duration : 1h 26mnBit rate mode : ConstantBit rate : 192 KbpsChannel(s) : 2 channelsSampling rate : 48.0 KHzCompression mode : LossyStream size : 119 MiB (7%)

    Скриншоты

    Скачать .torrent

    Скачать торрент-файл бесплатно и на максимальной скорости!

    Как скачивать? · Что такое торрент? · Рейтинг и ограничения

    !ВНИМАНИЕ!
    Сайт не распространяет и не хранит электронные версии произведений, а занимается лишь лишь предоставлением доступа к создаваемому пользователями каталогу ссылок на торрент-файлы, которые содержат только списки хеш-сумм, убедительная просьба с жалобами обращаться напрямую к пользователю. Файлы для обмена на трекере предоставлены пользователями сайта, и администрация не несёт ответственности за их содержание. Просьба не заливать файлы, защищенные авторскими правами, а также файлы нелегального содержания!

    [Профиль] [ЛС]

    -746

    Создавать темы 28-Дек-2015 16:07 (спустя 1 год)

           

    Топик был перенесен из форума Фильмы 2011-2014 в форум Новогодние релизы - Фильмы, Мультфильмы


    -sasha2006

    _________________
    Как бы ты высоко не летал, не забывай, с кем ты ползал..
     
    Показать сообщения:    
    Ответить на тему

    Текущее время: Сегодня, в 16:15

    Часовой пояс: GMT + 2



    Вы не можете начинать темы
    Вы не можете отвечать на сообщения
    Вы не можете редактировать свои сообщения
    Вы не можете удалять свои сообщения
    Вы не можете голосовать в опросах
    Вы не можете прикреплять файлы к сообщениям
    Вы не можете скачивать файлы