Register  ·  Log in
Forgot password?

  • Рождество с Холли / Christmas with Holly (Аллан Аркуш / Allan Arkush) [2012, США, Канада, драма, семейный, DVB] MVO (Кириллица)

    Reply to topic
    Author Message


    Post 26-Dec-2014 21:51



    Рождество с Холли / Christmas with Holly-Страна: США, Канада
    Жанр: драма, семейный
    Год выпуска: 2012
    Продолжительность: 00:01:22
    Перевод: Профессиональный (многоголосый закадровый) Студия "Кириллица"
    Cубтитры: нет
    Оригинальная аудиодорожка: нет-Режиссер: Аллан Аркуш / Allan Arkush
    В ролях: Мауралея Остин, Адам Болдуин, Наоми Блэкхолл-Батлер, Дон Боттомли, Катрин Беруб, Тесса Камерон, Вэйд Кэрролл, Доун Кир, Шон Фэрис, Фиона Форсайт...- -Описание: История о девушке Мэгги, которая переезжает в небольшой городок, мечтая открыть собственный магазин игрушек. Здесь она встречает симпатичного парня Марка, владельца кофейни.-Семпл:Качество видео: DVB
    Формат видео: MKV
    Видео: 720x576 (4:3) @ 768x576, 25.000 fps, MPEG-2 Video, ~2385 Kbps, 0.230 bits/pixel
    Аудио: Русский, 48.0 KHz, MPEG-1 Audio layer 2, 2 ch, 192 Kbps


    GeneralComplete name : Christmas with Holly 2012 Disney MVO Kirillitsa.mpgFormat : MPEG-PSFile size : 1.59 GiBDuration : 1h 26mnOverall bit rate mode : VariableOverall bit rate : 2 630 Kbps
    VideoID : 224 (0xE0)Format : MPEG VideoFormat version : Version 2Format profile : Main@MainFormat settings, BVOP : YesFormat settings, Matrix : CustomFormat settings, GOP : VariableFormat settings, picture structure : FrameDuration : 1h 26mnBit rate mode : VariableBit rate : 2 385 KbpsMaximum bit rate : 15.0 MbpsWidth : 720 pixelsHeight : 576 pixelsDisplay aspect ratio : 4:3Frame rate : 25.000 fpsStandard : PALColor space : YUVChroma subsampling : 4:2:0Bit depth : 8 bitsScan type : InterlacedScan order : Top Field FirstCompression mode : LossyBits/(Pixel*Frame) : 0.230Time code of first frame : 00:00:00:00Time code source : Group of pictures headerGOP, Open/Closed : OpenStream size : 1.45 GiB (91%)GOP, Open/Closed of first frame : Closed
    AudioID : 192 (0xC0)Format : MPEG AudioFormat version : Version 1Format profile : Layer 2Duration : 1h 26mnBit rate mode : ConstantBit rate : 192 KbpsChannel(s) : 2 channelsSampling rate : 48.0 KHzCompression mode : LossyStream size : 119 MiB (7%)


    Download .torrent

    Download free and at maximum speed!

    How to Download? · What is a torrent? · Ratings and Limitations

    The site does not extend and does not store electronic(digital) versions of products, and only gives access to a reference catalogue created by users on torrent-files which contain only lists of the hash-sums, the earnest entreaty, with complaints(abuse) to access directly to the user. Files for an exchange on tracker are given by users of a site, and the administration does not bear the responsibility for their maintenance. The request to not fill in the files protected by copyrights, and also files of the illegal maintenance!

    [Profile] [PM]


    Post 28-Dec-2015 17:07 (after 1 year)


    Топик был перенесен из форума Фильмы 2011-2014 в форум Новогодние релизы - Фильмы, Мультфильмы


    Как бы ты высоко не летал, не забывай, с кем ты ползал..
    Display posts from previous:    
    Reply to topic

    The time now is: Today 22:16

    All times are GMT + 3 Hours

    You cannot post new topics in this forum
    You cannot reply to topics in this forum
    You cannot edit your posts in this forum
    You cannot delete your posts in this forum
    You cannot vote in polls in this forum
    You cannot attach files in this forum
    You cannot download files in this forum