Register  ·  Log in
Forgot password?

  • Одержимость / The Taking (Адам Робител / Adam Robitel) [2014, США, ужасы, триллер, HDRip] VO (П. Морозов)

    Reply to topic
    Author Message


    Post 26-Dec-2014 21:47



    Одержимость / The Taking
    Страна: США
    Жанр: ужасы, триллер
    Год выпуска: 2014
    Продолжительность: 01:30:03
    Перевод: Одноголосый закадровый П. Морозов aka PashaUp по переводу Janetta
    Cубтитры: нет
    Оригинальная аудиодорожка: нет
    Режиссер: Адам Робител / Adam Robitel
    В ролях: Джилл Ларсон, Энн Рэмси, Мишель Энг, Райан Кутрона, Энн Нахабидиан, Бретт Джентиле, Джереми ДеКарлос, Тоня Бладсворт, Джулианна Тейлор, Яна Аллен
    Описание: То, что начиналось как трогательный документальный фильм о том, как у Деборы Логан начала развиваться болезнь Альцгеймера, и как ее дочь борется за нее, в результате превратилось в сущий кошмар. Никто не подозревал, что за болезнью Деборы скрывается куда большее зло…
    Доп. информация:

    Качество видео: HDRip
    Формат видео: AVI
    Видео: 720x400 (1.80:1), 23.976 fps, XviD MPEG-4 ~1658 kbps avg, 0.24 bit/pixel
    Аудио: 48 kHz, AC3 Dolby Digital, 3/2 (L,C,R,l,r) + LFE ch, ~448 kbps


    Complete name : C:\Users\Вика\Desktop\Thе.Tаking.2014.HDRip.avi
    Format : AVI
    Format/Info : Audio Video Interleave
    File size : 1.33 GiB
    Duration : 1h 30mn
    Overall bit rate : 2 116 Kbps
    Writing application : VirtualDubMod (build 2540/release)
    Writing library : VirtualDubMod build 2540/release
    ID : 0
    Format : MPEG-4 Visual
    Format profile : Advanced Simple@L5
    Format settings, BVOP : 2
    Format settings, QPel : No
    Format settings, GMC : No warppoints
    Format settings, Matrix : Default (H.263)
    Muxing mode : Packed bitstream
    Codec ID : XVID
    Codec ID/Hint : XviD
    Duration : 1h 30mn
    Bit rate : 1 659 Kbps
    Width : 720 pixels
    Height : 400 pixels
    Display aspect ratio : 16:9
    Frame rate : 23.976 fps
    Color space : YUV
    Chroma subsampling : 4:2:0
    Bit depth : 8 bits
    Scan type : Progressive
    Compression mode : Lossy
    Bits/(Pixel*Frame) : 0.240
    Stream size : 1.04 GiB (78%)
    Writing library : XviD 64
    ID : 1
    Format : AC-3
    Format/Info : Audio Coding 3
    Mode extension : CM (complete main)
    Format settings, Endianness : Big
    Codec ID : 2000
    Duration : 1h 30mn
    Bit rate mode : Constant
    Bit rate : 448 Kbps
    Channel(s) : 6 channels
    Channel positions : Front: L C R, Side: L R, LFE
    Sampling rate : 48.0 KHz
    Bit depth : 16 bits
    Compression mode : Lossy
    Stream size : 289 MiB (21%)
    Alignment : Split accross interleaves
    Interleave, duration : 42 ms (1.00 video frame)
    Interleave, preload duration : 500 ms

    Скриншот c названием фильма


    Download .torrent

    Download free and at maximum speed!

    How to Download? · What is a torrent? · Ratings and Limitations

    The site does not extend and does not store electronic(digital) versions of products, and only gives access to a reference catalogue created by users on torrent-files which contain only lists of the hash-sums, the earnest entreaty, with complaints(abuse) to access directly to the user. Files for an exchange on tracker are given by users of a site, and the administration does not bear the responsibility for their maintenance. The request to not fill in the files protected by copyrights, and also files of the illegal maintenance!

    [Profile] [PM]
    Display posts from previous:    
    Reply to topic

    The time now is: Today 00:27

    All times are GMT + 3 Hours

    You cannot post new topics in this forum
    You cannot reply to topics in this forum
    You cannot edit your posts in this forum
    You cannot delete your posts in this forum
    You cannot vote in polls in this forum
    You cannot attach files in this forum
    You cannot download files in this forum