BitTorrentTracker PerecTracker.org
BitTorrentTracker PerecTracker.org
    
Регистрация  ·  Вход
 
 · 
Забыли пароль?

  • Последняя истина / True Blue (Дж.С. Кардоне / J.S. Cardone) [2001 г., триллер, драма, криминал, WEB-DL 720p]

    Ответить на тему
     
    Автор Сообщение

    Columb

    Создавать темы 22-Фев-2013 11:07

           

    [Цитировать]

    Последняя истина / True Blue-
    Год выпуска: 2001
    Страна: США
    Жанр: триллер, драма, криминал
    Продолжительность: 01:41:06
    Перевод: Профессиональный (двухголосый, закадровый) R5
    Перевод 2: Авторский (одноголосый закадровый) Ю.Живов
    Субтитры:русские, английские
    Оригинальная аудио дорожка: английский
    Режиссер: Дж.С. Кардоне / J.S. Cardone


    В ролях: Том Беренджер, Лори Хёринг, Памела Гидли, Бэрри Ньюман, Сун-Тек Ох, Лео Ли, Ричард Шеволье, Алек МакКлюр, Янна МакИнтош, Ф.Дж. Флинн
    Описание: Из пруда в Центральном парке Нью-Йорка извлечена отрубленная рука. Страшная находка побуждает полицейский департамент принять усиленные меры по расследованию этого темного дела, воплощенные в лице хваткого и проницательного детектива Рема Мэйси.
    Ему придется сильно потрудиться, чтобы мертвая улика заговорила и указала путь к истине. Полагаясь на свое чутье сыщика, Рем осторожно перебирает тонкие нити скудных зацепок, ведущие то в мир проституции, то китайских уличных банд и даже… правящей элиты Нью-Йорка!
    Наступит момент, эти нити сплетутся в одну, и свет опасной для приобщившихся к ней истине прольется над мрачной тайной.

    Качество: WEB-DL 720p
    Формат: MKV
    Видео кодек: Другой MPEG4
    Аудио кодек: AC3
    Видео: MPEG-4 AVC, 1280x718, 4034 кбит/сек, 23.976 fps
    Аудио: 48 kHz, AC3 Dolby Digital, 3/2 (L,C,R,l,r) + LFE ch, ~384 kbps DVO R5
    Аудио 2: 48 kHz, AC3 Dolby Digital, 3/2 (L,C,R,l,r) + LFE ch, ~384 kbps AVO
    Аудио 3: 48 kHz, AC3 Dolby Digital, 3/2 (L,C,R,l,r) + LFE ch, ~384 kbps original

    MediaInfo

    ПОСЛЕДНЯЯ ИСТИНА (DVO+AVO+SUB).2001.720p.WEB-DL.H264-lord_i_74.mkv
    Формат : Matroska
    Версия формата : Version 2
    Размер файла : 3,74 Гбайт
    Продолжительность : 1 ч. 41 м.
    Общий поток : 5291 Кбит/сек
    Дата кодирования : UTC 2013-02-21 16:27:12
    Программа кодирования : mkvmerge v5.0.1 ('Es ist Sommer') built on Oct 9 2011 11:55:43
    Библиотека кодирования : libebml v1.2.2 + libmatroska v1.3.0
    Видео
    Идентификатор : 1
    Формат : AVC
    Формат/Информация : Advanced Video Codec
    Профиль формата : High@L3.1
    Параметр CABAC формата : Нет
    Параметр ReFrames формата : 2 кадра
    Параметры GOP формата : M=2, N=24
    Идентификатор кодека : V_MPEG4/ISO/AVC
    Продолжительность : 1 ч. 41 м.
    Битрейт : 4034 Кбит/сек
    Ширина : 1280 пикс.
    Высота : 718 пикс.
    Соотношение сторон : 16:9
    Частота кадров : 23,976 кадр/сек
    Цветовое пространство : YUV
    Подвыборка цветности : 4:2:0
    Битовая глубина : 8 бит
    Тип развёртки : Прогрессивная
    Бит/(Пиксели*Кадры) : 0.183
    Размер потока : 2,85 Гбайт (76%)
    Заголовок : True.Blue.2001.720p.WEB-DL.H264-WEBiOS
    Язык : English
    Основные цвета : BT.709-5, BT.1361, IEC 61966-2-4, SMPTE RP177
    Характеристики трансфера : BT.709-5, BT.1361
    Коэффициенты матрицы : BT.709-5, BT.1361, IEC 61966-2-4 709, SMPTE RP177
    Аудио #1
    Идентификатор : 2
    Формат : AC-3
    Формат/Информация : Audio Coding 3
    Расширение режима : CM (complete main)
    Идентификатор кодека : A_AC3
    Продолжительность : 1 ч. 41 м.
    Вид битрейта : Постоянный
    Битрейт : 384 Кбит/сек
    Каналы : 6 каналов
    Расположение каналов : Front: L C R, Side: L R, LFE
    Частота : 48,0 КГц
    Битовая глубина : 16 бит
    Метод сжатия : С потерями
    Размер потока : 278 Мбайт (7%)
    Заголовок : DVO R5
    Язык : Russian
    Аудио #2
    Идентификатор : 3
    Формат : AC-3
    Формат/Информация : Audio Coding 3
    Расширение режима : CM (complete main)
    Идентификатор кодека : A_AC3
    Продолжительность : 1 ч. 41 м.
    Вид битрейта : Постоянный
    Битрейт : 384 Кбит/сек
    Каналы : 6 каналов
    Расположение каналов : Front: L C R, Side: L R, LFE
    Частота : 48,0 КГц
    Битовая глубина : 16 бит
    Метод сжатия : С потерями
    Размер потока : 278 Мбайт (7%)
    Заголовок : AVO Ю.Живов
    Язык : Russian
    Аудио #3
    Идентификатор : 4
    Формат : AC-3
    Формат/Информация : Audio Coding 3
    Расширение режима : CM (complete main)
    Идентификатор кодека : A_AC3
    Продолжительность : 1 ч. 41 м.
    Вид битрейта : Постоянный
    Битрейт : 384 Кбит/сек
    Каналы : 6 каналов
    Расположение каналов : Front: L C R, Side: L R, LFE
    Частота : 48,0 КГц
    Битовая глубина : 16 бит
    Метод сжатия : С потерями
    Размер потока : 278 Мбайт (7%)
    Заголовок : original
    Язык : English
    Текст #1
    Идентификатор : 5
    Формат : UTF-8
    Идентификатор кодека : S_TEXT/UTF8
    Идентификатор кодека/Информация : UTF-8 Plain Text
    Заголовок : sub R5
    Язык : Russian
    Текст #2
    Идентификатор : 6
    Формат : UTF-8
    Идентификатор кодека : S_TEXT/UTF8
    Идентификатор кодека/Информация : UTF-8 Plain Text
    Заголовок : sub
    Язык : English

    Скриншоты

    [URL=http://fastpic.ru/view/51/2013/0221/3034ba718c27eabb004afcdb0aaf243c.png.html]
    [/URL]
    Скачать .torrent

    Скачать торрент-файл бесплатно и на максимальной скорости!

    Как скачивать? · Что такое торрент? · Рейтинг и ограничения

    !ВНИМАНИЕ!
    Сайт не распространяет и не хранит электронные версии произведений, а занимается лишь лишь предоставлением доступа к создаваемому пользователями каталогу ссылок на торрент-файлы, которые содержат только списки хеш-сумм, убедительная просьба с жалобами обращаться напрямую к пользователю. Файлы для обмена на трекере предоставлены пользователями сайта, и администрация не несёт ответственности за их содержание. Просьба не заливать файлы, защищенные авторскими правами, а также файлы нелегального содержания!

    [Профиль] [ЛС]
    Показать сообщения:    
    Ответить на тему

    Текущее время: Сегодня, в 16:26

    Часовой пояс: GMT + 2



    Вы не можете начинать темы
    Вы не можете отвечать на сообщения
    Вы не можете редактировать свои сообщения
    Вы не можете удалять свои сообщения
    Вы не можете голосовать в опросах
    Вы не можете прикреплять файлы к сообщениям
    Вы не можете скачивать файлы