BitTorrentTracker PerecTracker.org
BitTorrentTracker PerecTracker.org
    
Регистрация  ·  Вход
 
 · 
Забыли пароль?

  • (Contemporary Jazz, Piano) [CD] The Malcolm Campbell Trio - For the Meantime - 2014, FLAC (tracks+.cue), lossless

    Ответить на тему
     
    Автор Сообщение

    Columb

    Создавать темы 25-Дек-2014 13:00

           

    [Цитировать]

    THE
    MALCOLM
    CAMPBELL
    TRIOFOR THE MEANTIME

    Жанр: Contemporary Jazz, Piano
    Страна-производитель диска: USA
    Год издания: 2014
    Издатель (лейбл): Self Production
    Аудиокодек: FLAC (*.flac)
    Тип рипа: tracks+.cue
    Битрейт аудио: lossless
    Продолжительность: 50:42
    Источник (релизер): спасибо i6Respawns
    Наличие сканов в содержимом раздачи: нет
    Треклист:
    1. Intro
    2. Undertow
    3. Dodo's Desire
    4. Work
    5. Amud's Love
    6. Intro Reprise
    7. Pannonica
    8. Family Man
    9. I'll Be Seeing You
    10. Turnstyle
    11. Outro

    Лог создания рипа

    X Lossless Decoder version 20141129 (148.1)
    XLD extraction logfile from 2014-12-18 01:30:26 -0500
    Malcolm Campbell Trio / For The Meantime
    Used drive : TSSTcorp CDDVDW SE-208DB (revision TS00)Media type : Pressed CD
    Ripper mode : XLD Secure RipperDisable audio cache : OK for the drive with a cache less than 1375KiBMake use of C2 pointers : NORead offset correction : 6Max retry count : 20Gap status : Analyzed, Appended (except HTOA)
    TOC of the extracted CD Track | Start | Length | Start sector | End sector --------------------------------------------------------- 1 | 00:00:00 | 01:37:62 | 0 | 7336 2 | 01:37:62 | 05:36:07 | 7337 | 32543 3 | 07:13:69 | 07:31:00 | 32544 | 66368 4 | 14:44:69 | 05:36:01 | 66369 | 91569 5 | 20:20:70 | 04:52:50 | 91570 | 113519 6 | 25:13:45 | 01:32:17 | 113520 | 120436 7 | 26:45:62 | 04:29:18 | 120437 | 140629 8 | 31:15:05 | 04:53:60 | 140630 | 162664 9 | 36:08:65 | 06:46:72 | 162665 | 193186 10 | 42:55:62 | 05:51:32 | 193187 | 219543 11 | 48:47:19 | 02:05:36 | 219544 | 228954
    AccurateRip Summary Disc not found in AccurateRip DB.
    All Tracks Album gain : 2.15 dB Peak : 0.998718 Statistics Read error : 0 Jitter error (maybe fixed) : 0 Retry sector count : 0 Damaged sector count : 0
    Track 01 Filename : /Users/OGN/Desktop/Malcolm Campbell Trio - For The Meantime (2014) /01 - Malcolm Campbell Trio - Intro.flac Pre-gap length : 00:02:00
    Track gain : 5.09 dB Peak : 0.700470 CRC32 hash (test run) : 08FCFF8A CRC32 hash : 08FCFF8A CRC32 hash (skip zero) : C3DF08A6 AccurateRip v1 signature : EE928498 AccurateRip v2 signature : 34E37E6D ->Track not present in AccurateRip database. Statistics Read error : 0 Jitter error (maybe fixed) : 0 Retry sector count : 0 Damaged sector count : 0
    Track 02 Filename : /Users/OGN/Desktop/Malcolm Campbell Trio - For The Meantime (2014) /02 - Malcolm Campbell Trio - Undertow.flac Pre-gap length : 00:01:00
    Track gain : 1.61 dB Peak : 0.998718 CRC32 hash (test run) : 89335A8A CRC32 hash : 89335A8A CRC32 hash (skip zero) : 644EBC6A AccurateRip v1 signature : DAB6A3A1 AccurateRip v2 signature : 84C83428 ->Track not present in AccurateRip database. Statistics Read error : 0 Jitter error (maybe fixed) : 0 Retry sector count : 0 Damaged sector count : 0
    Track 03 Filename : /Users/OGN/Desktop/Malcolm Campbell Trio - For The Meantime (2014) /03 - Malcolm Campbell Trio - Dodo's Desire.flac Pre-gap length : 00:00:74
    Track gain : 2.09 dB Peak : 0.964355 CRC32 hash (test run) : 5791B38A CRC32 hash : 5791B38A CRC32 hash (skip zero) : 9BFE7635 AccurateRip v1 signature : A48F0B2E AccurateRip v2 signature : 98516FC6 ->Track not present in AccurateRip database. Statistics Read error : 0 Jitter error (maybe fixed) : 0 Retry sector count : 0 Damaged sector count : 0
    Track 04 Filename : /Users/OGN/Desktop/Malcolm Campbell Trio - For The Meantime (2014) /04 - Malcolm Campbell Trio - Work.flac Pre-gap length : 00:00:74
    Track gain : 1.73 dB Peak : 0.973969 CRC32 hash (test run) : CAE4B155 CRC32 hash : CAE4B155 CRC32 hash (skip zero) : 672A611A AccurateRip v1 signature : A4C2CBE3 AccurateRip v2 signature : B08CD25B ->Track not present in AccurateRip database. Statistics Read error : 0 Jitter error (maybe fixed) : 0 Retry sector count : 0 Damaged sector count : 0
    Track 05 Filename : /Users/OGN/Desktop/Malcolm Campbell Trio - For The Meantime (2014) /05 - Malcolm Campbell Trio - Amud's Love.flac Pre-gap length : 00:00:74
    Track gain : 6.63 dB Peak : 0.551300 CRC32 hash (test run) : 25FA3C1E CRC32 hash : 25FA3C1E CRC32 hash (skip zero) : C69CD7DB AccurateRip v1 signature : 4FE8463B AccurateRip v2 signature : 96924B62 ->Track not present in AccurateRip database. Statistics Read error : 0 Jitter error (maybe fixed) : 0 Retry sector count : 0 Damaged sector count : 0
    Track 06 Filename : /Users/OGN/Desktop/Malcolm Campbell Trio - For The Meantime (2014) /06 - Malcolm Campbell Trio - Intro Reprise.flac Pre-gap length : 00:00:74
    Track gain : 6.32 dB Peak : 0.694092 CRC32 hash (test run) : F729283B CRC32 hash : F729283B CRC32 hash (skip zero) : A3BD8960 AccurateRip v1 signature : 8C19EE24 AccurateRip v2 signature : 336B8709 ->Track not present in AccurateRip database. Statistics Read error : 0 Jitter error (maybe fixed) : 0 Retry sector count : 0 Damaged sector count : 0
    Track 07 Filename : /Users/OGN/Desktop/Malcolm Campbell Trio - For The Meantime (2014) /07 - Malcolm Campbell Trio - Pannonica.flac Pre-gap length : 00:00:74
    Track gain : 4.68 dB Peak : 0.469879 CRC32 hash (test run) : D0A5B89B CRC32 hash : D0A5B89B CRC32 hash (skip zero) : BCBE6A88 AccurateRip v1 signature : 27B10894 AccurateRip v2 signature : AC612B88 ->Track not present in AccurateRip database. Statistics Read error : 0 Jitter error (maybe fixed) : 0 Retry sector count : 0 Damaged sector count : 0
    Track 08 Filename : /Users/OGN/Desktop/Malcolm Campbell Trio - For The Meantime (2014) /08 - Malcolm Campbell Trio - Family Man.flac Pre-gap length : 00:00:74
    Track gain : 4.00 dB Peak : 0.639984 CRC32 hash (test run) : FA7073A1 CRC32 hash : FA7073A1 CRC32 hash (skip zero) : DD59D7C2 AccurateRip v1 signature : D67108F5 AccurateRip v2 signature : 282AC073 ->Track not present in AccurateRip database. Statistics Read error : 0 Jitter error (maybe fixed) : 0 Retry sector count : 0 Damaged sector count : 0
    Track 09 Filename : /Users/OGN/Desktop/Malcolm Campbell Trio - For The Meantime (2014) /09 - Malcolm Campbell Trio - I'll Be Seeing You.flac Pre-gap length : 00:00:74
    Track gain : 2.91 dB Peak : 0.837891 CRC32 hash (test run) : 5F5EA6B9 CRC32 hash : 5F5EA6B9 CRC32 hash (skip zero) : AAD52A7A AccurateRip v1 signature : F9E53D07 AccurateRip v2 signature : 772112E3 ->Track not present in AccurateRip database. Statistics Read error : 0 Jitter error (maybe fixed) : 0 Retry sector count : 0 Damaged sector count : 0
    Track 10 Filename : /Users/OGN/Desktop/Malcolm Campbell Trio - For The Meantime (2014) /10 - Malcolm Campbell Trio - Turnstyle.flac Pre-gap length : 00:00:74
    Track gain : 0.77 dB Peak : 0.970428 CRC32 hash (test run) : 2E8FE556 CRC32 hash : 2E8FE556 CRC32 hash (skip zero) : C2F99F66 AccurateRip v1 signature : 33CEBD87 AccurateRip v2 signature : AE8D8B7B ->Track not present in AccurateRip database. Statistics Read error : 0 Jitter error (maybe fixed) : 0 Retry sector count : 0 Damaged sector count : 0
    Track 11 Filename : /Users/OGN/Desktop/Malcolm Campbell Trio - For The Meantime (2014) /11 - Malcolm Campbell Trio - Outro.flac Pre-gap length : 00:00:74
    Track gain : 1.09 dB Peak : 0.970673 CRC32 hash (test run) : B48C0119 CRC32 hash : B48C0119 CRC32 hash (skip zero) : D1AF5C0C AccurateRip v1 signature : 03BC8973 AccurateRip v2 signature : 1A531148 ->Track not present in AccurateRip database. Statistics Read error : 0 Jitter error (maybe fixed) : 0 Retry sector count : 0 Damaged sector count : 0
    No errors occurred
    End of status report
    -----BEGIN XLD SIGNATURE-----gQP4citi03yo7vOhEsEipYE6.D5TdxmOi3RVGtKXveDE__gh2uYZ5cYXt1__e3uD3Qx3RUdMfxsDdNAgBVZ1DCWE4DEuxFbHd6gJhZa-----END XLD SIGNATURE-----

    Содержание индексной карты (.CUE)

    TITLE "For The Meantime"PERFORMER "Malcolm Campbell Trio"REM GENRE "Jazz"REM DATE "2014"REM DISCNUMBER 1REM TOTALDISCS 1REM DISCID A30BEC0BREM REPLAYGAIN_ALBUM_GAIN 2.15 dBREM REPLAYGAIN_ALBUM_PEAK 0.998718FILE "01 - Intro.flac" WAVE TRACK 01 AUDIO TITLE "Intro" FLAGS DCP REM REPLAYGAIN_TRACK_GAIN 5.09 dB REM REPLAYGAIN_TRACK_PEAK 0.700470 INDEX 01 00:00:00 TRACK 02 AUDIO TITLE "Undertow" FLAGS DCP REM REPLAYGAIN_TRACK_GAIN 1.61 dB REM REPLAYGAIN_TRACK_PEAK 0.998718 INDEX 00 01:36:62FILE "02 - Undertow.flac" WAVE INDEX 01 00:00:00 TRACK 03 AUDIO TITLE "Dodo's Desire" FLAGS DCP REM REPLAYGAIN_TRACK_GAIN 2.09 dB REM REPLAYGAIN_TRACK_PEAK 0.964355 INDEX 00 05:35:08FILE "03 - Dodo's Desire.flac" WAVE INDEX 01 00:00:00 TRACK 04 AUDIO TITLE "Work" FLAGS DCP REM REPLAYGAIN_TRACK_GAIN 1.73 dB REM REPLAYGAIN_TRACK_PEAK 0.973969 INDEX 00 07:30:01FILE "04 - Work.flac" WAVE INDEX 01 00:00:00 TRACK 05 AUDIO TITLE "Amud's Love" FLAGS DCP REM REPLAYGAIN_TRACK_GAIN 6.63 dB REM REPLAYGAIN_TRACK_PEAK 0.551300 INDEX 00 05:35:02FILE "05 - Amud's Love.flac" WAVE INDEX 01 00:00:00 TRACK 06 AUDIO TITLE "Intro Reprise" FLAGS DCP REM REPLAYGAIN_TRACK_GAIN 6.32 dB REM REPLAYGAIN_TRACK_PEAK 0.694092 INDEX 00 04:51:51FILE "06 - Intro Reprise.flac" WAVE INDEX 01 00:00:00 TRACK 07 AUDIO TITLE "Pannonica" FLAGS DCP REM REPLAYGAIN_TRACK_GAIN 4.68 dB REM REPLAYGAIN_TRACK_PEAK 0.469879 INDEX 00 01:31:18FILE "07 - Pannonica.flac" WAVE INDEX 01 00:00:00 TRACK 08 AUDIO TITLE "Family Man" FLAGS DCP REM REPLAYGAIN_TRACK_GAIN 4.00 dB REM REPLAYGAIN_TRACK_PEAK 0.639984 INDEX 00 04:28:19FILE "08 - Family Man.flac" WAVE INDEX 01 00:00:00 TRACK 09 AUDIO TITLE "I'll Be Seeing You" FLAGS DCP REM REPLAYGAIN_TRACK_GAIN 2.91 dB REM REPLAYGAIN_TRACK_PEAK 0.837891 INDEX 00 04:52:61FILE "09 - I'll Be Seeing You.flac" WAVE INDEX 01 00:00:00 TRACK 10 AUDIO TITLE "Turnstyle" FLAGS DCP REM REPLAYGAIN_TRACK_GAIN 0.77 dB REM REPLAYGAIN_TRACK_PEAK 0.970428 INDEX 00 06:45:73FILE "10 - Turnstyle.flac" WAVE INDEX 01 00:00:00 TRACK 11 AUDIO TITLE "Outro" FLAGS DCP REM REPLAYGAIN_TRACK_GAIN 1.09 dB REM REPLAYGAIN_TRACK_PEAK 0.970673 INDEX 00 05:50:33FILE "11 - Outro.flac" WAVE INDEX 01 00:00:00

    Об исполнителе

    The Malcolm Campbell Trio
    The Malcolm Campbell Trio is a young, vibrant group that is keeping the tradition of acoustic jazz alive while staying in touch with the spirit of their generation. Consisting of rising stars, Malcolm on piano, Zwelakhe-Duma Bell Pere on Bass and Charles Burchell on drums. Its sound has been described as “powerful, energetic and passionate” and draws from influences as diverse as Ahmad Jamal, J Dilla and Jason Moran.
    Malcolm Campbell
    Malcolm Campbell is a jazz pianist and composer from Lexington, MA. As the first jazz musician in the Harvard/New England Conservatory dual degree program, Malcolm has studied under Danilo Perez, Frank Carlberg, Fred Hersch and Jerry Bergonzi. He graduated from Harvard University in 2010 with a degree in Chemistry and Physics summa cum laude. He is now working towards a Masters in Music from the New England Conservatory (expected 2011). He has performed at Carnegie Hall's Weill Recital Hall, the New England Conservatory's Jordan Hall, and Symphony Hall, and at the Montreux Jazz Festival, the Aspen Jazz Festival, and Monterrey Next Generation Jazz Festival. He has performed with Don Byron, Billy Hart, Roy Hargrove, Cecil McBee, Lee Konitz, Mark O'Connor, Lee Konitz, and Makoto Ozone, and has played in masterclasses for Yo Yo Ma, Herbie Hancock, Joshua Redman, Aaron Goldberg, Jason Moran, and Dave Holland. An avid classical pianist as well, Malcolm draws influences from Bach, Rachmaninoff, and Debussy.
    Zwelakhe-Duma Bell LePere
    Zwelakhe-Duma Bell LePere is a bass player from South Africa by way of Conneticut and graduated form the New England Conservatory in 2011 where he studied with Jason Moran, Cecil McBee and Donald Palma. He performed and gave clinics at the 2011 Panama Jazz Festival and was recipient of the 2011 Betty Carter Zazz Fellowship. He will be pursuing his Music Masters at the New England Conservatory this fall.
    Charles Burchell
    Charles Burchell is a drummer from New Orleans, Louisiana and just finished his junior year at the New England Conservatory. He has toured across the United States with musicians such as Delfeayo Marsalis and Wes Anderson. In addition to being mentored by a large community of New Orleans jazz musicians, Charles has studied extensively with master drummer Billy Hart.

    Состав


    Malcolm Campbell - piano
    Zwelakhe-Duma Bell Le Pere - bass
    Charles Burchell - drums
    Скачать .torrent

    Скачать торрент-файл бесплатно и на максимальной скорости!

    Как скачивать? · Что такое торрент? · Рейтинг и ограничения

    !ВНИМАНИЕ!
    Сайт не распространяет и не хранит электронные версии произведений, а занимается лишь лишь предоставлением доступа к создаваемому пользователями каталогу ссылок на торрент-файлы, которые содержат только списки хеш-сумм, убедительная просьба с жалобами обращаться напрямую к пользователю. Файлы для обмена на трекере предоставлены пользователями сайта, и администрация не несёт ответственности за их содержание. Просьба не заливать файлы, защищенные авторскими правами, а также файлы нелегального содержания!

    [Профиль] [ЛС]
    Показать сообщения:    
    Ответить на тему

    Текущее время: Сегодня, в 04:20

    Часовой пояс: GMT + 2



    Вы не можете начинать темы
    Вы не можете отвечать на сообщения
    Вы не можете редактировать свои сообщения
    Вы не можете удалять свои сообщения
    Вы не можете голосовать в опросах
    Вы не можете прикреплять файлы к сообщениям
    Вы не можете скачивать файлы