BitTorrentTracker PerecTracker.org
BitTorrentTracker PerecTracker.org
    
Регистрация  ·  Вход
 
 · 
Забыли пароль?

  • Расследование инцидентов с самосожжением тибетцев / Facts About Self-Immolation in Tibetan Areas of Ngapa [2012 г., Документальный, история, культура, этнография, SATRip]

    Ответить на тему
     
    Автор Сообщение

    Columb

    Создавать темы 22-Фев-2013 08:43

           

    [Цитировать]

    Расследование инцидентов с самосожжением тибетцев / Facts About Self-Immolation in Tibetan Areas of Ngapa-Год выпуска: 2012
    Страна: Китай
    Жанр: Документальный, история, культура, этнография
    Продолжительность: 00:31:35
    Перевод: одноголосый, закадровый
    Субтитры: русские
    Описание: Национальная телекомпания China Central Television (CCTV) выпустила документальный фильм, в котором она раскрывает правду о самосожжениях в районах, населенных тибетцами, которые произошли в уезде Аба на северо-западе провинции Сычуань в Китае...
    Качество: SATRip
    Формат: AVI
    Видео кодек: XviD
    Аудио кодек: MP3
    Видео: MPEG-4 Visual, XviD, 704 х 528 (4:3), 25,000 кадров/сек, 1414 Кбит/сек, 0.152 бит/пиксель
    Аудио: MPEG Audio Layer 3, 48,0 КГц, 128 Кбит/сек, 2 канала
    Релиз-группа OLARRI & qsdyg

    MediaInfo

    Общее
    Полное имя : E:\torrent\Расследование инцидентов с самосожжением тибетцев.avi
    Формат : AVI
    Формат/Информация : Audio Video Interleave
    Размер файла : 351 Мбайт
    Продолжительность : 31 м.
    Общий поток : 1552 Кбит/сек
    Программа кодирования : VirtualDubMod 1.5.10.3 | www.virtualdub-fr.org || (build 2550/release)
    Библиотека кодирования : VirtualDubMod build 2550/release
    Видео
    Идентификатор : 0
    Формат : MPEG-4 Visual
    Профиль формата : Advanced Simple@L5
    Параметр BVOP формата : 2
    Параметр QPel формата : Нет
    Параметр GMC формата : Без точки перехода
    Параметр матрицы формата : Выборочная
    Идентификатор кодека : XVID
    Идентификатор кодека/Подсказка : XviD
    Продолжительность : 31 м.
    Битрейт : 1414 Кбит/сек
    Ширина : 704 пикселя
    Высота : 528 пикселей
    Соотношение сторон : 4:3
    Частота кадров : 25,000 кадров/сек
    Цветовое пространство : YUV
    Субдискретизация насыщенности : 4:2:0
    Битовая глубина : 8 бит
    Тип развёртки : Прогрессивная
    Метод сжатия : С потерями
    Бит/(Пиксели*Кадры) : 0.152
    Размер потока : 320 Мбайт (91%)
    Библиотека кодирования : XviD 65
    Аудио
    Идентификатор : 1
    Формат : MPEG Audio
    Версия формата : Version 1
    Профиль формата : Layer 3
    Идентификатор кодека : 55
    Идентификатор кодека/Подсказка : MP3
    Продолжительность : 31 м.
    Вид битрейта : Постоянный
    Битрейт : 128 Кбит/сек
    Каналы : 2 канала
    Частота : 48,0 КГц
    Метод сжатия : С потерями
    Размер потока : 28,9 Мбайт (8%)
    Выравнивание : Соединение по промежуткам
    Продолжительность промежутка : 40 мс. (1,00 видеокадр)
    Время предзагрузки промежутка : 504 мс.
    Библиотека кодирования : LAME3.99r
    Настройки программы : -m s -V 4 -q 2 -lowpass 17 -b 128

    Скриншоты




    Скачать .torrent

    Скачать торрент-файл бесплатно и на максимальной скорости!

    Как скачивать? · Что такое торрент? · Рейтинг и ограничения

    !ВНИМАНИЕ!
    Сайт не распространяет и не хранит электронные версии произведений, а занимается лишь лишь предоставлением доступа к создаваемому пользователями каталогу ссылок на торрент-файлы, которые содержат только списки хеш-сумм, убедительная просьба с жалобами обращаться напрямую к пользователю. Файлы для обмена на трекере предоставлены пользователями сайта, и администрация не несёт ответственности за их содержание. Просьба не заливать файлы, защищенные авторскими правами, а также файлы нелегального содержания!

    [Профиль] [ЛС]
    Показать сообщения:    
    Ответить на тему

    Текущее время: Сегодня, в 10:00

    Часовой пояс: GMT + 2



    Вы не можете начинать темы
    Вы не можете отвечать на сообщения
    Вы не можете редактировать свои сообщения
    Вы не можете удалять свои сообщения
    Вы не можете голосовать в опросах
    Вы не можете прикреплять файлы к сообщениям
    Вы не можете скачивать файлы