BitTorrentTracker PerecTracker.org
BitTorrentTracker PerecTracker.org
    
Регистрация  ·  Вход
 
 · 
Забыли пароль?

  • (Pop) VA - Now That's What I Call Music! 52 (U.S. series) - 2014, FLAC (tracks+.cue), lossless

    Ответить на тему
     
    Автор Сообщение

    Columb

    Создавать темы 25-Дек-2014 12:50

           

    [Цитировать]

    Now That's What I Call Music! 52 (U.S. series)
    Жанр: Pop
    Год издания: 2014-10-27
    Страна-производитель диска (релиза): United States
    Издатель (лейбл): Sony Music Entertainment
    Номер по каталогу: 0600753548684
    Аудиокодек: FLAC (*.flac)
    Тип рипа: tracks+.cue
    Битрейт аудио: lossless
    Треклист:
    1. "Bang Bang" Jessie J, Ariana Grande & Nicki Minaj 3:16
    2. "All About That Bass" Meghan Trainor 3:07
    3. "Bailando" Enrique Iglesias featuring Sean Paul, Descemer Bueno & Gente de Zona 4:00
    4. "Anaconda" Nicki Minaj 3:19
    5. "Black Widow" Iggy Azalea featuring Rita Ora 3:28
    6. "This Is How We Do" Katy Perry 3:21
    7. "Rather Be" Clean Bandit featuring Jess Glynne 3:45
    8. "Break Free" Ariana Grande featuring Zedd 3:32
    9. "Fireball" Pitbull featuring John Ryan 3:54
    10. "Love Runs Out" OneRepublic 3:42
    11. "Maps" Maroon 5 3:08
    12. "Am I Wrong" Nico & Vinz 4:03
    13. "Hideaway" Kiesza 4:11
    14. "Shower" Becky G 3:24
    15. "Amnesia" 5 Seconds of Summer 3:40
    16. "Burnin' It Down" Jason Aldean 3:43
    17. "Life of the Party" Shawn Mendes 3:32
    18. "All About You" Hilary Duff 2:39
    19. "Scarecrow" Alex & Sierra 3:23
    20. "Too Cool to Dance" Eden xo 3:08
    21. "No Flex Zone!" Rae Sremmurd 3:51
    Продолжительность: 1:14:20

    Лог создания рипа

    Exact Audio Copy V1.0 beta 3 from 29. August 2011
    EAC extraction logfile from 30. October 2014, 7:59
    Various Artists / Now That's What I Call Music! 52
    Used drive : TSSTcorpCD/DVDW TS-H653L Adapter: 1 ID: 0
    Read mode : SecureUtilize accurate stream : YesDefeat audio cache : YesMake use of C2 pointers : No
    Read offset correction : 6Overread into Lead-In and Lead-Out : NoFill up missing offset samples with silence : YesDelete leading and trailing silent blocks : NoNull samples used in CRC calculations : YesUsed interface : Native Win32 interface for Win NT & 2000Gap handling : Appended to previous track
    Used output format : User Defined EncoderSelected bitrate : 768 kBit/sQuality : HighAdd ID3 tag : NoCommand line compressor : C:\Program Files\Exact Audio Copy\Flac\flac.exeAdditional command line options : -8 -V -T "ARTIST=%artist%" -T "TITLE=%title%" -T "ALBUM=%albumtitle%" -T "DATE=%year%" -T "TRACKNUMBER=%tracknr%" -T "GENRE=%genre%" -T "PERFORMER=%albuminterpret%" -T "COMPOSER=%composer%" %haslyrics%--tag-from-file=LYRICS="%lyricsfile%"%haslyrics% -T "ALBUMARTIST=%albumartist%" -T "ALBUM ARTIST=%albumartist%" -T "DISCNUMBER=%cdnumber%" -T "TOTALDISCS=%totalcds%" -T "TOTALTRACKS=%numtracks%" -T "COMMENT=EAC V1.0 beta 2, Secure Mode, Test & Copy, AccurateRip, FLAC -8" %source% -o %dest%
    TOC of the extracted CD
    Track | Start | Length | Start sector | End sector --------------------------------------------------------- 1 | 0:00.00 | 3:16.61 | 0 | 14760 2 | 3:16.61 | 3:07.18 | 14761 | 28803 3 | 6:24.04 | 4:00.36 | 28804 | 46839 4 | 10:24.40 | 3:19.72 | 46840 | 61836 5 | 13:44.37 | 3:28.66 | 61837 | 77502 6 | 17:13.28 | 3:21.72 | 77503 | 92649 7 | 20:35.25 | 3:45.35 | 92650 | 109559 8 | 24:20.60 | 3:32.28 | 109560 | 125487 9 | 27:53.13 | 3:54.59 | 125488 | 143096 10 | 31:47.72 | 3:42.74 | 143097 | 159820 11 | 35:30.71 | 3:08.39 | 159821 | 173959 12 | 38:39.35 | 4:03.71 | 173960 | 192255 13 | 42:43.31 | 4:11.69 | 192256 | 211149 14 | 46:55.25 | 3:24.58 | 211150 | 226507 15 | 50:20.08 | 3:40.62 | 226508 | 243069 16 | 54:00.70 | 3:43.72 | 243070 | 259866 17 | 57:44.67 | 3:32.19 | 259867 | 275785 18 | 61:17.11 | 2:39.66 | 275786 | 287776 19 | 63:57.02 | 3:23.64 | 287777 | 303065 20 | 67:20.66 | 3:08.16 | 303066 | 317181 21 | 70:29.07 | 3:51.08 | 317182 | 334514
    Track 1
    Filename G:\FLAC\Various Artists\NOW That's What I Call Music! 52\01 Bang Bang.wav
    Pre-gap length 0:00:02.00
    Peak level 98.8 % Extraction speed 4.6 X Track quality 100.0 % Test CRC F7930877 Copy CRC F7930877 Track not present in AccurateRip database Copy OK
    Track 2
    Filename G:\FLAC\Various Artists\NOW That's What I Call Music! 52\02 All About That Bass.wav
    Peak level 97.7 % Extraction speed 4.2 X Track quality 99.9 % Test CRC 1B9C5666 Copy CRC 1B9C5666 Track not present in AccurateRip database Copy OK
    Track 3
    Filename G:\FLAC\Various Artists\NOW That's What I Call Music! 52\03 Bailando.wav
    Peak level 97.6 % Extraction speed 5.5 X Track quality 100.0 % Test CRC 95A74A97 Copy CRC 95A74A97 Track not present in AccurateRip database Copy OK
    Track 4
    Filename G:\FLAC\Various Artists\NOW That's What I Call Music! 52\04 Anaconda.wav
    Peak level 99.0 % Extraction speed 5.7 X Track quality 100.0 % Test CRC A4ADC34F Copy CRC A4ADC34F Track not present in AccurateRip database Copy OK
    Track 5
    Filename G:\FLAC\Various Artists\NOW That's What I Call Music! 52\05 Black Widow.wav
    Peak level 99.1 % Extraction speed 6.0 X Track quality 100.0 % Test CRC F3060A36 Copy CRC F3060A36 Track not present in AccurateRip database Copy OK
    Track 6
    Filename G:\FLAC\Various Artists\NOW That's What I Call Music! 52\06 This is How We Do.wav
    Peak level 99.9 % Extraction speed 6.2 X Track quality 100.0 % Test CRC 86813A1A Copy CRC 86813A1A Track not present in AccurateRip database Copy OK
    Track 7
    Filename G:\FLAC\Various Artists\NOW That's What I Call Music! 52\07 Rather Be.wav
    Peak level 98.8 % Extraction speed 6.6 X Track quality 100.0 % Test CRC CD0A7D8D Copy CRC CD0A7D8D Track not present in AccurateRip database Copy OK
    Track 8
    Filename G:\FLAC\Various Artists\NOW That's What I Call Music! 52\08 Break Free.wav
    Peak level 97.6 % Extraction speed 6.9 X Track quality 100.0 % Test CRC A92B7DBE Copy CRC A92B7DBE Track not present in AccurateRip database Copy OK
    Track 9
    Filename G:\FLAC\Various Artists\NOW That's What I Call Music! 52\09 Fireball.wav
    Peak level 98.8 % Extraction speed 7.2 X Track quality 100.0 % Test CRC 0BCCA8C3 Copy CRC 0BCCA8C3 Track not present in AccurateRip database Copy OK
    Track 10
    Filename G:\FLAC\Various Artists\NOW That's What I Call Music! 52\10 Love Runs Out.wav
    Peak level 98.8 % Extraction speed 7.4 X Track quality 100.0 % Test CRC 0089D6BE Copy CRC 0089D6BE Track not present in AccurateRip database Copy OK
    Track 11
    Filename G:\FLAC\Various Artists\NOW That's What I Call Music! 52\11 Maps.wav
    Peak level 98.8 % Extraction speed 7.3 X Track quality 100.0 % Test CRC 8C1AD046 Copy CRC 8C1AD046 Track not present in AccurateRip database Copy OK
    Track 12
    Filename G:\FLAC\Various Artists\NOW That's What I Call Music! 52\12 Am I Wrong.wav
    Peak level 98.6 % Extraction speed 7.9 X Track quality 100.0 % Test CRC DCCF00E4 Copy CRC DCCF00E4 Track not present in AccurateRip database Copy OK
    Track 13
    Filename G:\FLAC\Various Artists\NOW That's What I Call Music! 52\13 Hideaway.wav
    Peak level 98.8 % Extraction speed 8.2 X Track quality 100.0 % Test CRC 831A3D8B Copy CRC 831A3D8B Track not present in AccurateRip database Copy OK
    Track 14
    Filename G:\FLAC\Various Artists\NOW That's What I Call Music! 52\14 Shower.wav
    Peak level 98.8 % Extraction speed 8.2 X Track quality 100.0 % Test CRC 07EE6495 Copy CRC 07EE6495 Track not present in AccurateRip database Copy OK
    Track 15
    Filename G:\FLAC\Various Artists\NOW That's What I Call Music! 52\15 Amnesia.wav
    Peak level 97.7 % Extraction speed 8.5 X Track quality 100.0 % Test CRC 4276EE2F Copy CRC 4276EE2F Track not present in AccurateRip database Copy OK
    Track 16
    Filename G:\FLAC\Various Artists\NOW That's What I Call Music! 52\16 Burnin' It Down.wav
    Peak level 99.1 % Extraction speed 8.7 X Track quality 100.0 % Test CRC D81DF72E Copy CRC D81DF72E Track not present in AccurateRip database Copy OK
    Track 17
    Filename G:\FLAC\Various Artists\NOW That's What I Call Music! 52\17 Life of the Party.wav
    Pre-gap length 0:00:03.08
    Peak level 98.8 % Extraction speed 8.8 X Track quality 100.0 % Test CRC 57EC90E7 Copy CRC 57EC90E7 Track not present in AccurateRip database Copy OK
    Track 18
    Filename G:\FLAC\Various Artists\NOW That's What I Call Music! 52\18 All About You.wav
    Peak level 98.7 % Extraction speed 8.5 X Track quality 100.0 % Test CRC CAF378A9 Copy CRC CAF378A9 Track not present in AccurateRip database Copy OK
    Track 19
    Filename G:\FLAC\Various Artists\NOW That's What I Call Music! 52\19 Scarecrow.wav
    Peak level 98.7 % Extraction speed 7.9 X Track quality 99.9 % Test CRC 8B006E85 Copy CRC 8B006E85 Track not present in AccurateRip database Copy OK
    Track 20
    Filename G:\FLAC\Various Artists\NOW That's What I Call Music! 52\20 Too Cool to Dance.wav
    Peak level 98.8 % Extraction speed 7.8 X Track quality 99.9 % Test CRC A333F45D Copy CRC A333F45D Track not present in AccurateRip database Copy OK
    Track 21
    Filename G:\FLAC\Various Artists\NOW That's What I Call Music! 52\21 No Flex Zone.wav
    Peak level 98.8 % Extraction speed 8.4 X Track quality 99.9 % Test CRC EEE83B4B Copy CRC EEE83B4B Track not present in AccurateRip database Copy OK
    None of the tracks are present in the AccurateRip database
    No errors occurred
    End of status report
    ---- CUETools DB Plugin V2.1.3
    [CTDB TOCID: gWZ6TcFiHoYFBqgsuCm6YxJQ2Xs-] found, Submit result: gWZ6TcFiHoYFBqgsuCm6YxJQ2Xs- has been confirmed[c14a57f7] (3/3) Accurately ripped
    ==== Log checksum 09A725D0782232FC39ADA942DEAC1628597AF8EBF59A2EE342856BB14FD876C3 ====

    Содержание индексной карты (.CUE)

    REM GENRE PopREM DATE 2014REM DISCID 2A116C15REM COMMENT "ExactAudioCopy v1.0b3"CATALOG 0600753548684PERFORMER "Various Artists"TITLE "Now That's What I Call Music! 52"FILE "01 Bang Bang.wav" WAVE TRACK 01 AUDIO TITLE "Bang Bang" PERFORMER "Jessie J., Ariana Grande, Micki Minaj" ISRC H2MM71409737 INDEX 01 00:00:00FILE "02 All About That Bass.wav" WAVE TRACK 02 AUDIO TITLE "All About That Bass" PERFORMER "Meghan Trainor" ISRC H2KM11401604 INDEX 01 00:00:00FILE "03 Bailando.wav" WAVE TRACK 03 AUDIO TITLE "Bailando" PERFORMER "Enrique Iglesias feat. Sean Paul, Descemer Nueno & Gente de Zona" ISRC GAeM71401975 INDEX 01 00:00:00FILE "04 Anaconda.wav" WAVE TRACK 04 AUDIO TITLE "Anaconda" PERFORMER "Nicki Minaj" ISRC H2;M31400312 INDEX 01 00:00:00FILE "05 Black Widow.wav" WAVE TRACK 05 AUDIO TITLE "Black Widow" PERFORMER "Iggy Azalea w/ Rita Ora" ISRC GAeM71401110 INDEX 01 00:00:00FILE "06 This is How We Do.wav" WAVE TRACK 06 AUDIO TITLE "This is How We Do" PERFORMER "Katy Perry" ISRC H2MM71311297 INDEX 01 00:00:00FILE "07 Rather Be.wav" WAVE TRACK 07 AUDIO TITLE "Rather Be" PERFORMER "Clean Bandit w/ Jess Glynne" ISRC GAPjS1300498 INDEX 01 00:00:00FILE "08 Break Free.wav" WAVE TRACK 08 AUDIO TITLE "Break Free" PERFORMER "Ariana Grande w/ Zedd" ISRC H2MM71409719 INDEX 01 00:00:00FILE "09 Fireball.wav" WAVE TRACK 09 AUDIO TITLE "Fireball" PERFORMER "Pitbull feat. John Ryan" ISRC H2IM11401783 INDEX 01 00:00:00FILE "10 Love Runs Out.wav" WAVE TRACK 10 AUDIO TITLE "Love Runs Out" PERFORMER "OneRepublic" ISRC H2IM11401783 INDEX 01 00:00:00FILE "11 Maps.wav" WAVE TRACK 11 AUDIO TITLE "Maps" PERFORMER "Maroon 5" ISRC H2MM71407116 INDEX 01 00:00:00FILE "12 Am I Wrong.wav" WAVE TRACK 12 AUDIO TITLE "Am I Wrong" PERFORMER "Nico & Vinz" ISRC H2MM71407116 INDEX 01 00:00:00FILE "13 Hideaway.wav" WAVE TRACK 13 AUDIO TITLE "Hideaway" PERFORMER "Kiesza" ISRC H2MM71400121 INDEX 01 00:00:00FILE "14 Shower.wav" WAVE TRACK 14 AUDIO TITLE "Shower" PERFORMER "Becky G" ISRC H2MM71400121 INDEX 01 00:00:00FILE "15 Amnesia.wav" WAVE TRACK 15 AUDIO TITLE "Amnesia" PERFORMER "5 Seconds of Summer" ISRC GAeM71404725 INDEX 01 00:00:00FILE "16 Burnin' It Down.wav" WAVE TRACK 16 AUDIO TITLE "Burnin' It Down" PERFORMER "Jason Aldean" ISRC H1l`=1400453 INDEX 01 00:00:00 TRACK 17 AUDIO TITLE "Life of the Party" PERFORMER "Shawn Mendes" ISRC H2MM71407508 INDEX 00 03:40:66FILE "17 Life of the Party.wav" WAVE INDEX 01 00:00:00FILE "18 All About You.wav" WAVE TRACK 18 AUDIO TITLE "All About You" PERFORMER "Hilary Duff" ISRC H2MM71407508 INDEX 01 00:00:00FILE "19 Scarecrow.wav" WAVE TRACK 19 AUDIO TITLE "Scarecrow" PERFORMER "Alex & Sierra" ISRC H2IM11401864 INDEX 01 00:00:00FILE "20 Too Cool to Dance.wav" WAVE TRACK 20 AUDIO TITLE "Too Cool to Dance" PERFORMER "Eden XO" ISRC H2KM11402238 INDEX 01 00:00:00FILE "21 No Flex Zone.wav" WAVE TRACK 21 AUDIO TITLE "No Flex Zone" PERFORMER "Rae Sremmurd" ISRC H2MM71414134 INDEX 01 00:00:00
    Скачать .torrent

    Скачать торрент-файл бесплатно и на максимальной скорости!

    Как скачивать? · Что такое торрент? · Рейтинг и ограничения

    !ВНИМАНИЕ!
    Сайт не распространяет и не хранит электронные версии произведений, а занимается лишь лишь предоставлением доступа к создаваемому пользователями каталогу ссылок на торрент-файлы, которые содержат только списки хеш-сумм, убедительная просьба с жалобами обращаться напрямую к пользователю. Файлы для обмена на трекере предоставлены пользователями сайта, и администрация не несёт ответственности за их содержание. Просьба не заливать файлы, защищенные авторскими правами, а также файлы нелегального содержания!

    [Профиль] [ЛС]
    Показать сообщения:    
    Ответить на тему

    Текущее время: Сегодня, в 20:34

    Часовой пояс: GMT + 2



    Вы не можете начинать темы
    Вы не можете отвечать на сообщения
    Вы не можете редактировать свои сообщения
    Вы не можете удалять свои сообщения
    Вы не можете голосовать в опросах
    Вы не можете прикреплять файлы к сообщениям
    Вы не можете скачивать файлы