BitTorrentTracker PerecTracker.org
BitTorrentTracker PerecTracker.org
    
Регистрация  ·  Вход
 
 · 
Забыли пароль?

  • Любовь актрисы Сумако / The Love of Sumako the Actress / Joyu Sumako no koi (Кэндзи Мидзогути / Kenji Mizoguchi) [1947, Япония, драма, DVDRip] DVO (Студия Инис) + Original Jap

    Ответить на тему
     
    Автор Сообщение

    Columb

    Создавать темы 23-Дек-2014 21:29

           

    [Цитировать]

    Любовь актрисы Сумако / The Love of Sumako the Actress / Joyu Sumako no koi
    Страна: Япония
    Студия: Shôchiku Eiga
    Жанр: драма
    Год выпуска: 1947
    Продолжительность: 01:35:51
    Перевод: Профессиональный (двухголосый закадровый) Студия Инис
    Cубтитры: нет
    Оригинальная аудиодорожка: японский
    Режиссер: Кэндзи Мидзогути / Kenji Mizoguchi
    В ролях: Кинуё Танака , Со Ямамура, Кикуэ Мори, Кёко Асагири, Тиэко Хигасияма, Эйтаро Одзава, Тэруко Киси, Корэя Сэнда
    Описание: Реконструкция жизни создателей реалистического театра в Японии Хогэцу Симамура (1871-1918) и актрисы
    Сумако Мацуи (1886 - 1919). Не удивительно, что Мидзогути снял в этом фильме свою любимую актрису Кинуё Танака. На экране он, видимо, хотел изобразить идеальные отношения между режиссером и любимой актрисой, которые в жизни он реализовать не смог. В 1987 году Кон Итикава снял фильм Eiga joyu, в котором рассказал об отношениях Кинуё Танака и Кэндзи Мидзогути.
    II Сэмпл II IMDB II
    Доп. информация:
    За видеоряд спасибо дед_сто_лет
    За русскую дорогу спасибо G00ba
    Качество видео: DVDRip
    Формат видео: AVI
    Видео: Xvid 640x480 (4:3) 25.0fps Bit rate 1634Kbps b/p 0.213
    Аудио 1: AC3 48.0 KHz 2ch. 192kbps rus dvo
    Аудио 2: AC3 48.0 KHz 2ch. 192kbps jap

    MediaInfo

    Общее
    Полное имя : E:\torrent\The.Love.of.Sumako.the.Actress.1947.DVDRip.avi
    Формат : AVI
    Формат/Информация : Audio Video Interleave
    Размер файла : 1,36 Гбайт
    Продолжительность : 1 ч. 35 м.
    Общий поток : 2032 Кбит/сек
    Программа кодирования : VirtualDubMod 1.5.10.3 (build 2550/release)
    Библиотека кодирования : VirtualDubMod build 2550/release
    Видео
    Идентификатор : 0
    Формат : MPEG-4 Visual
    Профиль формата : Advanced Simple@L5
    Параметр BVOP формата : 1
    Параметр QPel формата : Нет
    Параметр GMC формата : Без точки перехода
    Параметр матрицы формата : Выборочная
    Идентификатор кодека : XVID
    Идентификатор кодека/Подсказка : XviD
    Продолжительность : 1 ч. 35 м.
    Битрейт : 1634 Кбит/сек
    Ширина : 640 пикселей
    Высота : 480 пикселей
    Соотношение сторон : 4:3
    Частота кадров : 25,000 кадров/сек
    Цветовое пространство : YUV
    Субдискретизация насыщенности : 4:2:0
    Битовая глубина : 8 бит
    Тип развёртки : Прогрессивная
    Метод сжатия : С потерями
    Бит/(Пиксели*Кадры) : 0.213
    Размер потока : 1,09 Гбайт (80%)
    Библиотека кодирования : XviD 1.2.0.dev47 (UTC 2006-11-01)
    Аудио #1
    Идентификатор : 1
    Формат : AC-3
    Формат/Информация : Audio Coding 3
    Расширение режима : CM (complete main)
    Параметр Endianness формата : Big
    Идентификатор кодека : 2000
    Продолжительность : 1 ч. 35 м.
    Вид битрейта : Постоянный
    Битрейт : 192 Кбит/сек
    Каналы : 2 канала
    Расположение каналов : Front: L R
    Частота : 48,0 КГц
    Битовая глубина : 16 бит
    Метод сжатия : С потерями
    Размер потока : 132 Мбайт (9%)
    Выравнивание : Разделение по промежуткам
    Продолжительность промежутка : 40 мс. (1,00 видеокадр)
    Время предзагрузки промежутка : 500 мс.
    Язык : Japanese
    Аудио #2
    Идентификатор : 2
    Формат : AC-3
    Формат/Информация : Audio Coding 3
    Расширение режима : CM (complete main)
    Параметр Endianness формата : Big
    Идентификатор кодека : 2000
    Продолжительность : 1 ч. 35 м.
    Вид битрейта : Постоянный
    Битрейт : 192 Кбит/сек
    Каналы : 2 канала
    Расположение каналов : Front: L R
    Частота : 48,0 КГц
    Битовая глубина : 16 бит
    Метод сжатия : С потерями
    Размер потока : 132 Мбайт (9%)
    Выравнивание : Разделение по промежуткам
    Продолжительность промежутка : 40 мс. (1,00 видеокадр)
    Время предзагрузки промежутка : 500 мс.

    Скриншот c названием фильма

    Скриншоты


    Скачать .torrent

    Скачать торрент-файл бесплатно и на максимальной скорости!

    Как скачивать? · Что такое торрент? · Рейтинг и ограничения

    !ВНИМАНИЕ!
    Сайт не распространяет и не хранит электронные версии произведений, а занимается лишь лишь предоставлением доступа к создаваемому пользователями каталогу ссылок на торрент-файлы, которые содержат только списки хеш-сумм, убедительная просьба с жалобами обращаться напрямую к пользователю. Файлы для обмена на трекере предоставлены пользователями сайта, и администрация не несёт ответственности за их содержание. Просьба не заливать файлы, защищенные авторскими правами, а также файлы нелегального содержания!

    [Профиль] [ЛС]
    Показать сообщения:    
    Ответить на тему

    Текущее время: Сегодня, в 20:40

    Часовой пояс: GMT + 2



    Вы не можете начинать темы
    Вы не можете отвечать на сообщения
    Вы не можете редактировать свои сообщения
    Вы не можете удалять свои сообщения
    Вы не можете голосовать в опросах
    Вы не можете прикреплять файлы к сообщениям
    Вы не можете скачивать файлы