BitTorrentTracker PerecTracker.org
BitTorrentTracker PerecTracker.org
    
Регистрация  ·  Вход
 
 · 
Забыли пароль?

  • Новогодний "Голубой огонёк" [1981-1988, Развлекательная программа, 6xDVD9+4xDVD5]

    Ответить на тему
     
    Автор Сообщение

    rechyn

    Создавать темы 20-Дек-2014 21:26

           

    [Цитировать]

    Новогодний "Голубой огонёк" 1981
    Дата/Год выпуска: 1981
    Страна: СССР
    Жанр: Развлекательная программа
    Продолжительность: 02:58:06
    Перевод: Не требуется
    Русские субтитры: нет
    Оригинальная аудиодорожка: русский
    Телеканал: Первый канал
    Описание: Новогодняя ночь с 1981-го на 1982 год.
    Сэмпл: https://yadi.sk/i/zJciekpucxJje
    Качество: DVD9
    Формат: DVD Video
    Видео кодек: MPEG2
    Аудио кодек: AC3
    Видео: MPEG2 Video 720x576 (4:3) 25.00fps 9800kbps
    Аудио: Dolby AC3 48000Hz 6ch 448kbps [AC-3]
    Аудио 2: Dolby AC3 48000Hz 2ch 192kbps [AC-3]

    Треклист

    MediaInfo

    Формат : MPEG-PSРазмер файла : 1024 МбайтПродолжительность : 23 м.Режим общего битрейта : ПеременныйОбщий поток : 5986 Кбит/сек
    ВидеоИдентификатор : 224 (0xE0)Формат : MPEG VideoВерсия формата : Version 2Профиль формата : Main@MainПараметр BVOP формата : ДаПараметр матрицы формата : ВыборочнаяПараметр GOP формата : M=2, N=12Продолжительность : 23 м.Вид битрейта : ПеременныйБитрейт : 5226 Кбит/секМаксимальный битрейт : 9800 Кбит/секШирина : 720 пикселейВысота : 576 пикселейСоотношение сторон : 4:3Частота кадров : 25,000 кадров/секСтандарт вещания : PALЦветовое пространство : YUVСубдискретизация насыщенности : 4:2:0Битовая глубина : 8 битТип развёртки : ЧересстрочнаяПорядок развёртки : Верхнее поле первоеМетод сжатия : С потерямиБит/(Пиксели*Кадры) : 0.504Размер потока : 894 Мбайт (87%)
    Аудио #1Идентификатор : 189 (0xBD)-128 (0x80)Формат : AC-3Формат/Информация : Audio Coding 3Расширение режима : CM (complete main)Параметр Endianness формата : BigРежим смешивания : DVD-VideoПродолжительность : 23 м.Вид битрейта : ПостоянныйБитрейт : 192 Кбит/секКаналы : 2 каналаРасположение каналов : Front: L RЧастота : 48,0 КГцБитовая глубина : 16 битМетод сжатия : С потерямиРазмер потока : 32,8 Мбайт (3%)
    Аудио #2Идентификатор : 189 (0xBD)-129 (0x81)Формат : AC-3Формат/Информация : Audio Coding 3Расширение режима : CM (complete main)Параметр Endianness формата : BigРежим смешивания : DVD-VideoПродолжительность : 23 м.Вид битрейта : ПостоянныйБитрейт : 448 Кбит/секКаналы : 6 каналовРасположение каналов : Front: L C R, Side: L R, LFEЧастота : 48,0 КГцБитовая глубина : 16 битМетод сжатия : С потерямиРазмер потока : 76,6 Мбайт (7%)
    Меню

    Скриншоты меню

    Скриншоты

    --Новогодний "Голубой огонёк" 1982
    Дата/Год выпуска: 1982
    Страна: СССР
    Жанр: Развлекательная программа
    Продолжительность: 01:42:34+01:33:30
    Перевод: Не требуется
    Русские субтитры: нет
    Оригинальная аудиодорожка: русский
    Телеканал: Первый канал
    Описание: Новогодняя ночь с 1982-го на 1983 год.
    Сэмпл: https://yadi.sk/i/06Ds2_EXcxJji
    Качество: DVD5
    Формат: DVD Video
    Видео кодек: MPEG2
    Аудио кодек: AC3
    Видео: MPEG2 Video 720x576 (4:3) 25.00fps 9800kbps
    Аудио: Dolby AC3 48000Hz 6ch 448kbps [AC-3]
    Аудио 2: Dolby AC3 48000Hz 2ch 192kbps [AC-3]

    Треклист

    MediaInfo

    Формат : MPEG-PSРазмер файла : 1024 МбайтПродолжительность : 22 м.Режим общего битрейта : ПеременныйОбщий поток : 6470 Кбит/сек
    ВидеоИдентификатор : 224 (0xE0)Формат : MPEG VideoВерсия формата : Version 2Профиль формата : Main@MainПараметр BVOP формата : ДаПараметр матрицы формата : ВыборочнаяПараметр GOP формата : M=2, N=12Продолжительность : 22 м.Вид битрейта : ПеременныйБитрейт : 5702 Кбит/секМаксимальный битрейт : 9800 Кбит/секШирина : 720 пикселейВысота : 576 пикселейСоотношение сторон : 4:3Частота кадров : 25,000 кадров/секСтандарт вещания : PALЦветовое пространство : YUVСубдискретизация насыщенности : 4:2:0Битовая глубина : 8 битТип развёртки : ЧересстрочнаяПорядок развёртки : Верхнее поле первоеМетод сжатия : С потерямиБит/(Пиксели*Кадры) : 0.550Размер потока : 902 Мбайт (88%)
    Аудио #1Идентификатор : 189 (0xBD)-128 (0x80)Формат : AC-3Формат/Информация : Audio Coding 3Расширение режима : CM (complete main)Параметр Endianness формата : BigРежим смешивания : DVD-VideoПродолжительность : 22 м.Вид битрейта : ПостоянныйБитрейт : 192 Кбит/секКаналы : 2 каналаРасположение каналов : Front: L RЧастота : 48,0 КГцБитовая глубина : 16 битМетод сжатия : С потерямиРазмер потока : 30,4 Мбайт (3%)
    Аудио #2Идентификатор : 189 (0xBD)-129 (0x81)Формат : AC-3Формат/Информация : Audio Coding 3Расширение режима : CM (complete main)Параметр Endianness формата : BigРежим смешивания : DVD-VideoПродолжительность : 22 м.Вид битрейта : ПостоянныйБитрейт : 448 Кбит/секКаналы : 6 каналовРасположение каналов : Front: L C R, Side: L R, LFEЧастота : 48,0 КГцБитовая глубина : 16 битМетод сжатия : С потерямиРазмер потока : 70,9 Мбайт (7%)
    Меню

    Скриншоты меню

    Диск 1

    Диск 2

    Скриншоты

    Диск 1

    Диск 2
    --Новогодний "Голубой огонёк" 1983
    Дата/Год выпуска: 1983
    Страна: СССР
    Жанр: Развлекательная программа
    Продолжительность: 02:24:27
    Перевод: Не требуется
    Русские субтитры: нет
    Оригинальная аудиодорожка: русский
    Телеканал: Первый канал
    Описание: Новогодняя ночь с 1983-го на 1984 год.
    Сэмпл: https://yadi.sk/i/vXQQlVIPcxJjn
    Качество: DVD9
    Формат: DVD Video
    Видео кодек: MPEG2
    Аудио кодек: AC3
    Видео: MPEG2 Video 720x576 (4:3) 25.00fps 9800kbps
    Аудио: Dolby AC3 48000Hz 6ch 448kbps [AC-3]
    Аудио 2: Dolby AC3 48000Hz 2ch 192kbps [AC-3]

    Треклист

    MediaInfo

    Формат : MPEG-PSРазмер файла : 1024 МбайтПродолжительность : 18 м.Общий поток : 7546 Кбит/сек
    ВидеоИдентификатор : 224 (0xE0)Формат : MPEG VideoВерсия формата : Version 2Профиль формата : Main@MainПараметр BVOP формата : ДаПараметр матрицы формата : ВыборочнаяПараметр GOP формата : M=2, N=12Продолжительность : 18 м.Битрейт : 6774 Кбит/секШирина : 720 пикселейВысота : 576 пикселейСоотношение сторон : 4:3Частота кадров : 25,000 кадров/секСтандарт вещания : PALЦветовое пространство : YUVСубдискретизация насыщенности : 4:2:0Битовая глубина : 8 битТип развёртки : ЧересстрочнаяПорядок развёртки : Верхнее поле первоеМетод сжатия : С потерямиБит/(Пиксели*Кадры) : 0.653Размер потока : 917 Мбайт (90%)
    Аудио #1Идентификатор : 189 (0xBD)-128 (0x80)Формат : AC-3Формат/Информация : Audio Coding 3Расширение режима : CM (complete main)Параметр Endianness формата : BigРежим смешивания : DVD-VideoПродолжительность : 18 м.Вид битрейта : ПостоянныйБитрейт : 192 Кбит/секКаналы : 2 каналаРасположение каналов : Front: L RЧастота : 48,0 КГцБитовая глубина : 16 битМетод сжатия : С потерямиРазмер потока : 26,0 Мбайт (3%)
    Аудио #2Идентификатор : 189 (0xBD)-129 (0x81)Формат : AC-3Формат/Информация : Audio Coding 3Расширение режима : CM (complete main)Параметр Endianness формата : BigРежим смешивания : DVD-VideoПродолжительность : 18 м.Вид битрейта : ПостоянныйБитрейт : 448 Кбит/секКаналы : 6 каналовРасположение каналов : Front: L C R, Side: L R, LFEЧастота : 48,0 КГцБитовая глубина : 16 битМетод сжатия : С потерямиРазмер потока : 60,8 Мбайт (6%)
    Меню

    Скриншоты меню

    Скриншоты

    --Новогодний "Голубой огонёк" 1984
    Дата/Год выпуска: 1984
    Страна: СССР
    Жанр: Развлекательная программа
    Продолжительность: 02:20:23
    Перевод: Не требуется
    Русские субтитры: нет
    Оригинальная аудиодорожка: русский
    Телеканал: Первый канал
    Описание: Новогодняя ночь с 1984-го на 1985 год.
    Сэмпл: https://yadi.sk/i/STrW6nrNcxJjt
    Качество: DVD9
    Формат: DVD Video
    Видео кодек: MPEG2
    Аудио кодек: AC3
    Видео: MPEG2 Video 720x576 (4:3) 25.00fps 9800kbps
    Аудио: Dolby AC3 48000Hz 6ch 448kbps [AC-3]
    Аудио 2: Dolby AC3 48000Hz 2ch 192kbps [AC-3]

    Треклист

    MediaInfo

    Формат : MPEG-PSРазмер файла : 1024 МбайтПродолжительность : 18 м.Общий поток : 7750 Кбит/сек
    ВидеоИдентификатор : 224 (0xE0)Формат : MPEG VideoВерсия формата : Version 2Профиль формата : Main@MainПараметр BVOP формата : ДаПараметр матрицы формата : ВыборочнаяПараметр GOP формата : M=2, N=12Продолжительность : 18 м.Битрейт : 6970 Кбит/секШирина : 720 пикселейВысота : 576 пикселейСоотношение сторон : 4:3Частота кадров : 25,000 кадров/секСтандарт вещания : PALЦветовое пространство : YUVСубдискретизация насыщенности : 4:2:0Битовая глубина : 8 битТип развёртки : ЧересстрочнаяПорядок развёртки : Верхнее поле первоеМетод сжатия : С потерямиБит/(Пиксели*Кадры) : 0.672Размер потока : 919 Мбайт (90%)
    Аудио #1Идентификатор : 189 (0xBD)-128 (0x80)Формат : AC-3Формат/Информация : Audio Coding 3Расширение режима : CM (complete main)Параметр Endianness формата : BigРежим смешивания : DVD-VideoПродолжительность : 18 м.Вид битрейта : ПостоянныйБитрейт : 192 Кбит/секКаналы : 2 каналаРасположение каналов : Front: L RЧастота : 48,0 КГцБитовая глубина : 16 битМетод сжатия : С потерямиРазмер потока : 25,4 Мбайт (2%)
    Аудио #2Идентификатор : 189 (0xBD)-129 (0x81)Формат : AC-3Формат/Информация : Audio Coding 3Расширение режима : CM (complete main)Параметр Endianness формата : BigРежим смешивания : DVD-VideoПродолжительность : 18 м.Вид битрейта : ПостоянныйБитрейт : 448 Кбит/секКаналы : 6 каналовРасположение каналов : Front: L C R, Side: L R, LFEЧастота : 48,0 КГцБитовая глубина : 16 битМетод сжатия : С потерямиРазмер потока : 59,2 Мбайт (6%)
    Меню

    Скриншоты меню

    Скриншоты

    --Новогодний "Голубой огонёк" 1985
    Дата/Год выпуска: 1985
    Страна: СССР
    Жанр: Развлекательная программа
    Продолжительность: 02:17:44
    Перевод: Не требуется
    Русские субтитры: нет
    Оригинальная аудиодорожка: русский
    Телеканал: Первый канал
    Описание: Новогодняя ночь с 1985-го на 1986 год.
    Сэмпл: https://yadi.sk/i/Ym7X5A8ncxJjv
    Качество: DVD9
    Формат: DVD Video
    Видео кодек: MPEG2
    Аудио кодек: AC3
    Видео: MPEG2 Video 720x576 (4:3) 25.00fps 9800kbps
    Аудио: Dolby AC3 48000Hz 6ch 448kbps [AC-3]
    Аудио 2: Dolby AC3 48000Hz 2ch 192kbps [AC-3]

    Треклист

    MediaInfo

    Формат : MPEG-PSРазмер файла : 1024 МбайтПродолжительность : 18 м.Общий поток : 7783 Кбит/сек
    ВидеоИдентификатор : 224 (0xE0)Формат : MPEG VideoВерсия формата : Version 2Профиль формата : Main@MainПараметр BVOP формата : ДаПараметр матрицы формата : ВыборочнаяПараметр GOP формата : M=2, N=12Продолжительность : 18 м.Битрейт : 7000 Кбит/секШирина : 720 пикселейВысота : 576 пикселейСоотношение сторон : 4:3Частота кадров : 25,000 кадров/секСтандарт вещания : PALЦветовое пространство : YUVСубдискретизация насыщенности : 4:2:0Битовая глубина : 8 битТип развёртки : ЧересстрочнаяПорядок развёртки : Верхнее поле первоеМетод сжатия : С потерямиБит/(Пиксели*Кадры) : 0.675Размер потока : 919 Мбайт (90%)
    Аудио #1Идентификатор : 189 (0xBD)-128 (0x80)Формат : AC-3Формат/Информация : Audio Coding 3Расширение режима : CM (complete main)Параметр Endianness формата : BigРежим смешивания : DVD-VideoПродолжительность : 18 м.Вид битрейта : ПостоянныйБитрейт : 192 Кбит/секКаналы : 2 каналаРасположение каналов : Front: L RЧастота : 48,0 КГцБитовая глубина : 16 битМетод сжатия : С потерямиРазмер потока : 25,2 Мбайт (2%)
    Аудио #2Идентификатор : 189 (0xBD)-129 (0x81)Формат : AC-3Формат/Информация : Audio Coding 3Расширение режима : CM (complete main)Параметр Endianness формата : BigРежим смешивания : DVD-VideoПродолжительность : 18 м.Вид битрейта : ПостоянныйБитрейт : 448 Кбит/секКаналы : 6 каналовРасположение каналов : Front: L C R, Side: L R, LFEЧастота : 48,0 КГцБитовая глубина : 16 битМетод сжатия : С потерямиРазмер потока : 58,9 Мбайт (6%)
    Меню

    Скриншоты меню

    Скриншоты

    --Новогодний "Голубой огонёк" 1986
    Дата/Год выпуска: 1986
    Страна: СССР
    Жанр: Развлекательная программа
    Продолжительность: 03:09:03
    Перевод: Не требуется
    Русские субтитры: нет
    Оригинальная аудиодорожка: русский
    Телеканал: Первый канал
    Описание: Новогодняя ночь с 1986-го на 1987 год.
    Сэмпл: https://yadi.sk/i/8jmTNV6OcxJjx
    Качество: DVD9
    Формат: DVD Video
    Видео кодек: MPEG2
    Аудио кодек: AC3
    Видео: MPEG2 Video 720x576 (4:3) 25.00fps 9800kbps
    Аудио: Dolby AC3 48000Hz 6ch 448kbps [AC-3]
    Аудио 2: Dolby AC3 48000Hz 2ch 192kbps [AC-3]

    Треклист

    MediaInfo

    Формат : MPEG-PSРазмер файла : 1024 МбайтПродолжительность : 25 м.Режим общего битрейта : ПеременныйОбщий поток : 5687 Кбит/сек
    ВидеоИдентификатор : 224 (0xE0)Формат : MPEG VideoВерсия формата : Version 2Профиль формата : Main@MainПараметр BVOP формата : ДаПараметр матрицы формата : ВыборочнаяПараметр GOP формата : M=2, N=12Продолжительность : 25 м.Вид битрейта : ПеременныйБитрейт : 4933 Кбит/секМаксимальный битрейт : 9800 Кбит/секШирина : 720 пикселейВысота : 576 пикселейСоотношение сторон : 4:3Частота кадров : 25,000 кадров/секСтандарт вещания : PALЦветовое пространство : YUVСубдискретизация насыщенности : 4:2:0Битовая глубина : 8 битТип развёртки : ЧересстрочнаяПорядок развёртки : Верхнее поле первоеМетод сжатия : С потерямиБит/(Пиксели*Кадры) : 0.476Размер потока : 888 Мбайт (87%)
    Аудио #1Идентификатор : 189 (0xBD)-128 (0x80)Формат : AC-3Формат/Информация : Audio Coding 3Расширение режима : CM (complete main)Параметр Endianness формата : BigРежим смешивания : DVD-VideoПродолжительность : 25 м.Вид битрейта : ПостоянныйБитрейт : 192 Кбит/секКаналы : 2 каналаРасположение каналов : Front: L RЧастота : 48,0 КГцБитовая глубина : 16 битМетод сжатия : С потерямиРазмер потока : 34,6 Мбайт (3%)
    Аудио #2Идентификатор : 189 (0xBD)-129 (0x81)Формат : AC-3Формат/Информация : Audio Coding 3Расширение режима : CM (complete main)Параметр Endianness формата : BigРежим смешивания : DVD-VideoПродолжительность : 25 м.Вид битрейта : ПостоянныйБитрейт : 448 Кбит/секКаналы : 6 каналовРасположение каналов : Front: L C R, Side: L R, LFEЧастота : 48,0 КГцБитовая глубина : 16 битМетод сжатия : С потерямиРазмер потока : 80,6 Мбайт (8%)
    Меню

    Скриншоты меню

    Скриншоты

    --Новогодний "Голубой огонёк" 1987
    Дата/Год выпуска: 1987
    Страна: СССР
    Жанр: Развлекательная программа
    Продолжительность: 02:09:59
    Перевод: Не требуется
    Русские субтитры: нет
    Оригинальная аудиодорожка: русский
    Телеканал: Первый канал
    Описание: Новогодняя ночь с 1987-го на 1988 год.
    Сэмпл: https://yadi.sk/i/w1DmWUg2cxJjz
    Качество: DVD9
    Формат: DVD Video
    Видео кодек: MPEG2
    Аудио кодек: AC3
    Видео: MPEG2 Video 720x576 (4:3) 25.00fps 9800kbps
    Аудио: Dolby AC3 48000Hz 6ch 448kbps [AC-3]
    Аудио 2: Dolby AC3 48000Hz 2ch 192kbps [AC-3]

    Треклист

    MediaInfo

    Формат : MPEG-PSРазмер файла : 1024 МбайтПродолжительность : 21 м.Режим общего битрейта : ПеременныйОбщий поток : 6602 Кбит/сек
    ВидеоИдентификатор : 224 (0xE0)Формат : MPEG VideoВерсия формата : Version 2Профиль формата : Main@MainПараметр BVOP формата : ДаПараметр матрицы формата : ВыборочнаяПараметр GOP формата : M=2, N=12Продолжительность : 21 м.Вид битрейта : ПеременныйБитрейт : 5831 Кбит/секМаксимальный битрейт : 9800 Кбит/секШирина : 720 пикселейВысота : 576 пикселейСоотношение сторон : 4:3Частота кадров : 25,000 кадров/секСтандарт вещания : PALЦветовое пространство : YUVСубдискретизация насыщенности : 4:2:0Битовая глубина : 8 битТип развёртки : ЧересстрочнаяПорядок развёртки : Верхнее поле первоеМетод сжатия : С потерямиБит/(Пиксели*Кадры) : 0.562Размер потока : 904 Мбайт (88%)
    Аудио #1Идентификатор : 189 (0xBD)-128 (0x80)Формат : AC-3Формат/Информация : Audio Coding 3Расширение режима : CM (complete main)Параметр Endianness формата : BigРежим смешивания : DVD-VideoПродолжительность : 21 м.Вид битрейта : ПостоянныйБитрейт : 192 Кбит/секКаналы : 2 каналаРасположение каналов : Front: L RЧастота : 48,0 КГцБитовая глубина : 16 битМетод сжатия : С потерямиЗадержка видео : 240 мс.Размер потока : 29,8 Мбайт (3%)
    Аудио #2Идентификатор : 189 (0xBD)-129 (0x81)Формат : AC-3Формат/Информация : Audio Coding 3Расширение режима : CM (complete main)Параметр Endianness формата : BigРежим смешивания : DVD-VideoПродолжительность : 21 м.Вид битрейта : ПостоянныйБитрейт : 448 Кбит/секКаналы : 6 каналовРасположение каналов : Front: L C R, Side: L R, LFEЧастота : 48,0 КГцБитовая глубина : 16 битМетод сжатия : С потерямиЗадержка видео : 240 мс.Размер потока : 69,4 Мбайт (7%)
    Меню

    Скриншоты меню

    Скриншоты

    --Новогодний "Голубой огонёк" 1988
    Дата/Год выпуска: 1988
    Страна: СССР
    Жанр: Развлекательная программа
    Продолжительность: 01:38:41+01:35:16
    Перевод: Не требуется
    Русские субтитры: нет
    Оригинальная аудиодорожка: русский
    Телеканал: Первый канал
    Описание: Новогодняя ночь с 1988-го на 1989 год.
    Сэмпл: https://yadi.sk/i/AJKK_vXKcxSto
    Качество: DVD5
    Формат: DVD Video
    Видео кодек: MPEG2
    Аудио кодек: AC3
    Видео: MPEG2 Video 720x576 (4:3) 25.00fps 9800kbps
    Аудио: Dolby AC3 48000Hz 6ch 448kbps [AC-3]
    Аудио 2: Dolby AC3 48000Hz 2ch 192kbps [AC-3]

    Треклист

    MediaInfo

    Формат : MPEG-PSРазмер файла : 1024 МбайтПродолжительность : 18 м.Общий поток : 7784 Кбит/секБиблиотека кодирования : (c) 1998-2006 Womble Multimedia, Inc. / MPEG Video Wizard (10/2006) / Nov 8 2006
    ВидеоИдентификатор : 224 (0xE0)Формат : MPEG VideoВерсия формата : Version 2Профиль формата : Main@MainПараметр BVOP формата : ДаПараметр матрицы формата : ВыборочнаяПараметр GOP формата : M=2, N=12Продолжительность : 18 м.Битрейт : 7000 Кбит/секШирина : 720 пикселейВысота : 576 пикселейСоотношение сторон : 4:3Частота кадров : 25,000 кадров/секСтандарт вещания : PALЦветовое пространство : YUVСубдискретизация насыщенности : 4:2:0Битовая глубина : 8 битТип развёртки : ЧересстрочнаяПорядок развёртки : Верхнее поле первоеМетод сжатия : С потерямиБит/(Пиксели*Кадры) : 0.675Размер потока : 919 Мбайт (90%)Библиотека кодирования : (c) 1998-2006 Womble Multimedia, Inc. / MPEG Video Wizard (10/2006) / Nov 8 2006
    Аудио #1Идентификатор : 189 (0xBD)-128 (0x80)Формат : AC-3Формат/Информация : Audio Coding 3Расширение режима : CM (complete main)Параметр Endianness формата : BigРежим смешивания : DVD-VideoПродолжительность : 18 м.Вид битрейта : ПостоянныйБитрейт : 192 Кбит/секКаналы : 2 каналаРасположение каналов : Front: L RЧастота : 48,0 КГцБитовая глубина : 16 битМетод сжатия : С потерямиРазмер потока : 25,2 Мбайт (2%)
    Аудио #2Идентификатор : 189 (0xBD)-129 (0x81)Формат : AC-3Формат/Информация : Audio Coding 3Расширение режима : CM (complete main)Параметр Endianness формата : BigРежим смешивания : DVD-VideoПродолжительность : 18 м.Вид битрейта : ПостоянныйБитрейт : 448 Кбит/секКаналы : 6 каналовРасположение каналов : Front: L C R, Side: L R, LFEЧастота : 48,0 КГцБитовая глубина : 16 битМетод сжатия : С потерямиРазмер потока : 58,9 Мбайт (6%)
    Меню

    Скриншоты меню

    Диск 1

    Диск 2

    Скриншоты

    Диск 1

    Диск 2
    --
    Скачать .torrent

    Скачать торрент-файл бесплатно и на максимальной скорости!

    Как скачивать? · Что такое торрент? · Рейтинг и ограничения

    !ВНИМАНИЕ!
    Сайт не распространяет и не хранит электронные версии произведений, а занимается лишь лишь предоставлением доступа к создаваемому пользователями каталогу ссылок на торрент-файлы, которые содержат только списки хеш-сумм, убедительная просьба с жалобами обращаться напрямую к пользователю. Файлы для обмена на трекере предоставлены пользователями сайта, и администрация не несёт ответственности за их содержание. Просьба не заливать файлы, защищенные авторскими правами, а также файлы нелегального содержания!


    _________________
    [Профиль] [ЛС]
    Показать сообщения:    
    Ответить на тему

    Текущее время: Сегодня, в 05:57

    Часовой пояс: GMT + 2



    Вы не можете начинать темы
    Вы не можете отвечать на сообщения
    Вы не можете редактировать свои сообщения
    Вы не можете удалять свои сообщения
    Вы не можете голосовать в опросах
    Вы не можете прикреплять файлы к сообщениям
    Вы не можете скачивать файлы